Welcome Guest ( Log In | Register )

> Releases Upload / Добавление релизов

Добавить релиз тут / Click here to add release
Рекомендованные обменники / Recommended file shares

> Hate Squad - Reborn From Ashes (2018), Thrash Metal (D)
post Dec 6 2018, 11:53:09
Post #1

Правь статус, ####!111
**************
Group: Металариец
Posts: 15,297
Releases: 10446
From: Г.Харьков
On Forums: 6 years 7 months
Thanks: 173150 time(s)
Unknown


(IMG:https://metalarea.org/images/audiocovers/2018_Dec/acov_tid313819_thumb.jpg)

*Artist: Hate Squad
*Album: Reborn From Ashes
*Year: 2018
*Genre: Thrash Metal
*Country: Germany (IMG:https://metalarea.org/forum/style_images/flags/Germany.png)
*Format: mp3@CBR320kbps
*Size: 94MB

Tracklist:
1. Against All Odds 04:21
2. Death List 03:33
3. Amok 03:52
4. Reborn from Ashes 03:03
5. Retaliation Promise 03:54
6. Until I Die 03:06
7. Regain the Strenght 03:20
8. Know Your Enemy 02:28
9. Hate Factory 03:27
10. 2 Miles Behind Enemy Lines 04:07
11. Fuck Cancer! 03:50
******************************
Total playing time: 39:01



Extended info
Helge Dolgener Drums (1993-present)
Burkhard Schmitt Vocals (1993-present)
See also: Painstyle, Rise Above Ruins, ex-Bloodstain
Mark Künnemann Guitars (1994-1995, 1999-present)
Bauke de Groot Bass (1995-present)
See also: ex-Zenith, ex-Sargant Fury
Marcel Griese Guitars (2012-present)
See also: ex-Osyris


Technical info
(IMG:https://metalarea.org/images/spectrogram/2018_Dec/5360c8844d720f83152e15bded061c3e.png)
Input File: 03. Amok.mp3
Channels : 2
Sample Rate : 44100
Precision : 16-bit
Duration : 00:03:52.06 = 10233758 samples = 17404.4 CDDA sectors
File Size : 9.72M
Bit Rate : 335k
Sample Encoding: MPEG audio (layer I, II or III)
Comments :
Title=Amok
Artist=Hate Squad
Album=Reborn from Ashes
Tracknumber=3/11
Year=2018
Discnumber=1/1



Register


Go to the top of the page
  Insert nick Quick quote
+Quote Post
 
Start new topic
Replies (1 - 5)
post Dec 6 2018, 14:21:23
Post #2

Правь статус, ####!111
**************
Group: Металариец
Posts: 15,297
Releases: 10446
From: Г.Харьков
On Forums: 6 years 7 months
Thanks: 173150 time(s)
Unknown


Cloud Mail 320
Register


Go to the top of the page
  Insert nick Quick quote
+Quote Post
post Dec 6 2018, 15:23:36
Post #3

Правь статус, ####!111
**************
Group: Металариец
Posts: 35,264
Releases: 523
On Forums: 9 years 6 months
Thanks: 27373 time(s)
Russian Federation


@320

Register
Go to the top of the page
  Insert nick Quick quote
+Quote Post
post Dec 7 2018, 11:44:26
Post #4

ухо-горло-нос
*******
Group: Металариец
Posts: 789
Releases: 0
From: Севастополь
On Forums: 8 years 3 months
Thanks: 354 time(s)
Russian Federation


Как же всё таки хороша напалмдэзовская школа вокала. Вокалист апает не особо одарённый звукоряд.


Thanks:
(1) Foneg,
Go to the top of the page
  Insert nick Quick quote
+Quote Post
post Dec 8 2018, 18:15:22
Post #5

Мегаманьяк
***********
Group: Металариец
Posts: 1,738
Releases: 0
From: Dnipro
On Forums: 10 years 4 months
Thanks: 459 time(s)
Ukraine


ЦИТАТА(Jahmephisto @ Dec 7 2018, 12:44:26) *
Как же всё таки хороша напалмдэзовская школа вокала. Вокалист апает не особо одарённый звукоряд.
Как по мне так местами больше раннего Johan Liiva напоминает, времен Stigmata & Black Earth
Go to the top of the page
  Insert nick Quick quote
+Quote Post
post Dec 8 2018, 18:49:03
Post #6

Мегаманьяк
***********
Group: Металариец
Posts: 1,738
Releases: 0
From: Dnipro
On Forums: 10 years 4 months
Thanks: 459 time(s)
Ukraine


https://www.youtube.com/watch?v=wth3yL_K-Qk
Go to the top of the page
  Insert nick Quick quote
+Quote Post

Reply to this topicStart new topic
1 User(s) are reading this topic (1 Guests and 0 Anonymous Users)
0 Members:

 



- Lo-Fi Version Support form
Copyrights and abuse reports form
Time is now: 10th December 2018 - 13:39:26