Welcome Guest ( Log In | Register )

> Born Again - True Heavy Nation (2018), Heavy Metal (D5)
post Dec 6 2018, 11:55:06
Post #1

Аннигилятор пивА
Group Icon
Group: V.I.P
Posts: 52,356
Releases: 16556
From: Koenigsberg - TILZIT
On Forums: 12 years 11 months
Thanks: 360737 time(s)
Russian Federation


(IMG:https://metalarea.org/images/audiocovers/2018_Dec/acov_tid313820_thumb.jpg)

*Artist: Born Again
*Album: True Heavy Nation
*Year: 2018
*Genre: Heavy Metal
*Country: France (IMG:https://metalarea.org/forum/style_images/flags/France.png)
*Format: mp3@CBR320kbps
*Size: 95MB

Tracklist:
01. No Guts No Glory
02. Ghost Rider
03. King of Pain
04. Children of the Storm
05. No Place in Heaven
06. You Can't Stop Rock n'Roll
07. True Heavy Nation
08. Never Give Up
09. Lost in Time
10. Night of the Living Shred
******************************
Total playing time: 36:41



Extended info
Christopher - Bass
Pich - Drums (ex-Broken Edge)
Chris - Guitars (ex-Northwind, ex-Heavenly, ex-Karelia, ex-Broken Edge)
Thierry - Vocals (ex-Broken Edge)



Technical info
(IMG:https://metalarea.org/images/spectrogram/2018_Dec/4de97d29e756f77ab87b3bfd09ca2ce6.png)
Input File: 02 Ghost Rider.mp3
Channels : 2
Sample Rate : 44100
Precision : 16-bit
Duration : 00:04:08.33 = 10951485 samples = 18625 CDDA sectors
File Size : 10.4M
Bit Rate : 336k
Sample Encoding: MPEG audio (layer I, II or III)
Comments :
Title=Ghost Rider
Artist=Born Again
Album=True Heavy Nation
Tracknumber=2/10
Year=2018
Genre=Heavy Metal
Discnumber=1/1



Register


Go to the top of the page
  Insert nick Quick quote
+Quote Post
 
Start new topic
Replies (1 - 5)
post Dec 6 2018, 14:27:29
Post #2

Аннигилятор пивА
Group Icon
Group: V.I.P
Posts: 52,356
Releases: 16556
From: Koenigsberg - TILZIT
On Forums: 12 years 11 months
Thanks: 360737 time(s)
Russian Federation


MIRROR
Register


Thanks:
(1) postal67,
Go to the top of the page
  Insert nick Quick quote
+Quote Post
post Dec 6 2018, 18:57:36
Post #3

Два Литра
**
Group: Завсегдатай
Posts: 124
Releases: 0
On Forums: 11 years 2 months
Thanks: 42 time(s)
Russian Federation


Весьма неплохой рокенрольный хэви, с разными влияниями, от чего-то типа позднего Sinner до Motorhead (неявно!). И да, группа не из Италии (там есть коллектив с таким же названием, но это не он(IMG:style_emoticons/default/smile1.gif) ), а из Франции. Как ни странно.
Go to the top of the page
  Insert nick Quick quote
+Quote Post
post Dec 6 2018, 19:00:21
Post #4
BAN
Banned till
Jun 15 2019, 17:50:12



ЦИТАТА(aesteticvice @ Dec 6 2018, 14:55:06) *
*Album: True Heavy Nation


По Мановаровски (IMG:style_emoticons/default/25.gif)
Go to the top of the page
  Insert nick Quick quote
+Quote Post
post Dec 8 2018, 18:10:57
Post #5

Правь статус, ####!111
**************
Group: Металариец
Posts: 2,378
Releases: 2
From: Dnipro
On Forums: 10 years 10 months
Thanks: 622 time(s)
Ukraine


Даже мне такое интересно заценить (IMG:style_emoticons/default/15.gif)
Go to the top of the page
  Insert nick Quick quote
+Quote Post
post Dec 10 2018, 20:39:36
Post #6

Три Литра
***
Group: Завсегдатай
Posts: 203
Releases: 0
From: La Calera
On Forums: 6 years 3 months
Thanks: 197 time(s)
Chile


320 Kbps Mega

Register


Alex23...Foro las Tropas del Metal
Go to the top of the page
  Insert nick Quick quote
+Quote Post

Reply to this topicStart new topic
1 User(s) are reading this topic (1 Guests and 0 Anonymous Users)
0 Members:

 



- Lo-Fi Version Support form
Copyrights and abuse reports form
Time is now: 24th May 2019 - 12:01:17