Welcome Guest ( Log In | Register )

> Releases Upload / Добавление релизов

Добавить релиз тут / Click here to add release
Рекомендованные обменники / Recommended file shares

> Born Again - True Heavy Nation (2018), Heavy Metal (D5)
post Dec 6 2018, 11:55:06
Post #1

Аннигилятор пивА
Group Icon
Group: V.I.P
Posts: 50,725
Releases: 15804
From: Koenigsberg - TILZIT
On Forums: 12 years 6 months
Thanks: 344803 time(s)
Russian Federation


(IMG:https://metalarea.org/images/audiocovers/2018_Dec/acov_tid313820_thumb.jpg)

*Artist: Born Again
*Album: True Heavy Nation
*Year: 2018
*Genre: Heavy Metal
*Country: France (IMG:https://metalarea.org/forum/style_images/flags/France.png)
*Format: mp3@CBR320kbps
*Size: 95MB

Tracklist:
01. No Guts No Glory
02. Ghost Rider
03. King of Pain
04. Children of the Storm
05. No Place in Heaven
06. You Can't Stop Rock n'Roll
07. True Heavy Nation
08. Never Give Up
09. Lost in Time
10. Night of the Living Shred
******************************
Total playing time: 36:41



Extended info
Christopher - Bass
Pich - Drums (ex-Broken Edge)
Chris - Guitars (ex-Northwind, ex-Heavenly, ex-Karelia, ex-Broken Edge)
Thierry - Vocals (ex-Broken Edge)



Technical info
(IMG:https://metalarea.org/images/spectrogram/2018_Dec/4de97d29e756f77ab87b3bfd09ca2ce6.png)
Input File: 02 Ghost Rider.mp3
Channels : 2
Sample Rate : 44100
Precision : 16-bit
Duration : 00:04:08.33 = 10951485 samples = 18625 CDDA sectors
File Size : 10.4M
Bit Rate : 336k
Sample Encoding: MPEG audio (layer I, II or III)
Comments :
Title=Ghost Rider
Artist=Born Again
Album=True Heavy Nation
Tracknumber=2/10
Year=2018
Genre=Heavy Metal
Discnumber=1/1



Register


Go to the top of the page
  Insert nick Quick quote
+Quote Post
 
Start new topic
Replies (1 - 4)
post Dec 6 2018, 14:27:29
Post #2

Аннигилятор пивА
Group Icon
Group: V.I.P
Posts: 50,725
Releases: 15804
From: Koenigsberg - TILZIT
On Forums: 12 years 6 months
Thanks: 344803 time(s)
Russian Federation


MIRROR
Register


Thanks:
(1) postal67,
Go to the top of the page
  Insert nick Quick quote
+Quote Post
post Dec 6 2018, 18:57:36
Post #3

Два Литра
**
Group: Завсегдатай
Posts: 116
Releases: 0
On Forums: 10 years 8 months
Thanks: 39 time(s)
Russian Federation


Весьма неплохой рокенрольный хэви, с разными влияниями, от чего-то типа позднего Sinner до Motorhead (неявно!). И да, группа не из Италии (там есть коллектив с таким же названием, но это не он(IMG:style_emoticons/default/smile1.gif) ), а из Франции. Как ни странно.
Go to the top of the page
  Insert nick Quick quote
+Quote Post
post Dec 6 2018, 19:00:21
Post #4

Правь статус, ####!111
**************
Group: Металариец
Posts: 35,264
Releases: 523
On Forums: 9 years 6 months
Thanks: 27373 time(s)
Russian Federation


ЦИТАТА(aesteticvice @ Dec 6 2018, 14:55:06) *
*Album: True Heavy Nation


По Мановаровски (IMG:style_emoticons/default/25.gif)
Go to the top of the page
  Insert nick Quick quote
+Quote Post
post Dec 8 2018, 18:10:57
Post #5

Мегаманьяк
***********
Group: Металариец
Posts: 1,738
Releases: 0
From: Dnipro
On Forums: 10 years 4 months
Thanks: 459 time(s)
Ukraine


Даже мне такое интересно заценить (IMG:style_emoticons/default/15.gif)
Go to the top of the page
  Insert nick Quick quote
+Quote Post

Reply to this topicStart new topic
1 User(s) are reading this topic (1 Guests and 0 Anonymous Users)
0 Members:

 



- Lo-Fi Version Support form
Copyrights and abuse reports form
Time is now: 10th December 2018 - 13:52:22