Welcome Guest ( Log In | Register )

> Releases Upload / Добавление релизов

Добавить релиз тут / Click here to add release
Рекомендованные обменники / Recommended file shares

> Torturous Inception - Arcane Dominion (2018), Technical Brutal Death Metal
post Dec 6 2018, 12:01:21
Post #1

Правь статус, ####!111
**************
Group: Металариец
Posts: 15,297
Releases: 10446
From: Г.Харьков
On Forums: 6 years 7 months
Thanks: 173150 time(s)
Unknown


(IMG:https://metalarea.org/images/audiocovers/2018_Dec/acov_tid313821_thumb.jpg)

*Artist: Torturous Inception
*Album: Arcane Dominion
*Year: 2018
*Genre: Technical Brutal Death Metal
*Country: United States (IMG:https://metalarea.org/forum/style_images/flags/United%20States.png)
*Format: mp3@CBR320kbps
*Size: 75MB

Tracklist:
1. Aberration Thorns 04:01
2. Dominion 03:32
3. Perpetual Misery Storm 06:13
4. Behelit 03:56
5. The Severing Aftermath 02:58
6. Silhouette Visions 05:29
7. Rolling in the Grave 03:01
8. Dragged Back Through the Portal 02:04
******************************
Total playing time: 31:14



Extended info
Devon De Carlo Guitars (2011-present)
See also: ex-Thornefiction, ex-Vomitous Rectum
Dustin Primeau Guitars (2011-present)
Tyler Lauer Vocals (2011-present)
See also: Splattered Entrails, Internal Bleeding (live), ex-Expulsive Incision, ex-Noctem, ex-Vomitous Rectum, ex-Artificial Brain (live), ex-Dysentery (live)
Tom Maroney Bass (2012-present)
See also: Dehumanized, Socially Transmitted Disease
Zach Lieggi Drums (2013-present)


Technical info
(IMG:https://metalarea.org/images/spectrogram/2018_Dec/15c657feac9e903d78f0a4b4d0eb3f02.png)
Input File: 03. Perpetual Misery Storm.mp3
Channels : 2
Sample Rate : 44100
Precision : 16-bit
Duration : 00:06:13.15 = 16456047 samples = 27986.5 CDDA sectors
File Size : 15.4M
Bit Rate : 330k
Sample Encoding: MPEG audio (layer I, II or III)
Comments :
Title=Perpetual Misery Storm
Artist=Torturous Inception
Album=Arcane Dominion
Tracknumber=3/8
Year=2018
Discnumber=1/1



Register


Go to the top of the page
  Insert nick Quick quote
+Quote Post
 
Start new topic
Replies (1 - 3)
post Dec 6 2018, 14:22:49
Post #2

Правь статус, ####!111
**************
Group: Металариец
Posts: 15,297
Releases: 10446
From: Г.Харьков
On Forums: 6 years 7 months
Thanks: 173150 time(s)
Unknown


Cloud Mail 320
Register


Go to the top of the page
  Insert nick Quick quote
+Quote Post
post Dec 6 2018, 15:19:48
Post #3

Правь статус, ####!111
**************
Group: Металариец
Posts: 35,265
Releases: 523
On Forums: 9 years 6 months
Thanks: 27373 time(s)
Russian Federation


@320

Register


Thanks:
(1) artscald,
Go to the top of the page
  Insert nick Quick quote
+Quote Post
post Dec 6 2018, 16:26:25
Post #4

ME[ta]LLOMAN
**************
Group: Металариец
Posts: 4,882
Releases: 3
From: Hughes'sRegion\Avdeyevka
On Forums: 12 years 7 months
Thanks: 1780 time(s)
Honduras


Сумбурное, неуверенное... С уклоном в технику, да без подобающих навыков...


Thanks:
Go to the top of the page
  Insert nick Quick quote
+Quote Post

Reply to this topicStart new topic
1 User(s) are reading this topic (1 Guests and 0 Anonymous Users)
0 Members:

 



- Lo-Fi Version Support form
Copyrights and abuse reports form
Time is now: 10th December 2018 - 15:00:11