Welcome Guest ( Log In | Register )

> Releases Upload / Добавление релизов

Добавить релиз тут / Click here to add release
Рекомендованные обменники / Recommended file shares

> Blackest Dawn - The New Guard (2018), Death Metal (D5)
post Dec 6 2018, 12:02:16
Post #1

Аннигилятор пивА
Group Icon
Group: V.I.P
Posts: 50,727
Releases: 15810
From: Koenigsberg - TILZIT
On Forums: 12 years 6 months
Thanks: 344803 time(s)
Russian Federation


(IMG:https://metalarea.org/images/audiocovers/2018_Dec/acov_tid313822_thumb.jpg)

*Artist: Blackest Dawn
*Album: The New Guard
*Year: 2018
*Genre: Death Metal
*Country: Germany (IMG:https://metalarea.org/forum/style_images/flags/Germany.png)
*Format: mp3@CBR320kbps
*Size: 86MB

Tracklist:
01. Raped by the Grace of God
02. Motherfucking Die
03. Crystal Sky and Broken Teeth
04. Night Will Fall
05. Rotten to the Core
06. Among the Believers
07. Pissing Blood and Razorblades
08. Torturekiller
09. Into Fire We Will Follow
******************************
Total playing time: 42:19




Extended info
Vocals - Jörg Jüdes
Vocals - Frank (Mühle) Mühlenberg
Guitar - Sascha Graf
Guitar - Kevin Kroll
Bass - Alexander Garz
Drums - Benjamin Stach


Technical info
(IMG:https://metalarea.org/images/spectrogram/2018_Dec/82c9ed13a5c9a8641af085b0474993e9.png)
Input File: 02 Motherfucking Die.mp3
Channels : 2
Sample Rate : 44100
Precision : 16-bit
Duration : 00:03:29.38 = 9233790 samples = 15703.7 CDDA sectors
File Size : 8.93M
Bit Rate : 341k
Sample Encoding: MPEG audio (layer I, II or III)
Comments :
Title=Motherfucking Die
Artist=Blackest Dawn
Album=The New Guard
Tracknumber=2/9
Year=2018
Genre=Rock
Discnumber=1/1



Register


Go to the top of the page
  Insert nick Quick quote
+Quote Post
 
Start new topic
Replies (1 - 5)
post Dec 6 2018, 14:46:22
Post #2

Аннигилятор пивА
Group Icon
Group: V.I.P
Posts: 50,727
Releases: 15810
From: Koenigsberg - TILZIT
On Forums: 12 years 6 months
Thanks: 344803 time(s)
Russian Federation


MIRROR
Register




Thanks:
Go to the top of the page
  Insert nick Quick quote
+Quote Post
post Dec 7 2018, 10:00:27
Post #3

hearer & reader
**************
Group: Металариец
Posts: 7,220
Releases: 92
From: Moscow
On Forums: 11 years 3 months
Thanks: 6865 time(s)
Russian Federation


Какой лаконизм в обозначении стиля! (IMG:style_emoticons/default/m1234.gif)
Go to the top of the page
  Insert nick Quick quote
+Quote Post
post Dec 7 2018, 22:12:09
Post #4

MDM-Thrash Metal
**************
Group: Металариец
Posts: 7,296
Releases: 423
From: Одесса
On Forums: 11 years 4 months
Thanks: 13871 time(s)
Ukraine


- Preview of All 9 Tracks
Go to the top of the page
  Insert nick Quick quote
+Quote Post
post Dec 7 2018, 22:17:53
Post #5

Аннигилятор пивА
Group Icon
Group: V.I.P
Posts: 50,727
Releases: 15810
From: Koenigsberg - TILZIT
On Forums: 12 years 6 months
Thanks: 344803 time(s)
Russian Federation


ЦИТАТА(AHBAnep @ Dec 7 2018, 09:00:27) *
Какой лаконизм в обозначении стиля! (IMG:style_emoticons/default/m1234.gif)

ну, а че тут, бодрый дэт, местами с вкраплениями мелодика, но не настолько, чтобы в жанр выносить
Go to the top of the page
  Insert nick Quick quote
+Quote Post
post Dec 8 2018, 18:10:10
Post #6

Мегаманьяк
***********
Group: Металариец
Posts: 1,738
Releases: 0
From: Dnipro
On Forums: 10 years 4 months
Thanks: 459 time(s)
Ukraine


Кстати очень крепкий альбом, практически mdm.
Go to the top of the page
  Insert nick Quick quote
+Quote Post

Reply to this topicStart new topic
1 User(s) are reading this topic (1 Guests and 0 Anonymous Users)
0 Members:

 



- Lo-Fi Version Support form
Copyrights and abuse reports form
Time is now: 10th December 2018 - 14:04:14