Welcome Guest ( Log In | Register )

> Forest Of Shadows - Among The Dormant Watchers (2018), Death/Doom Metal
post Dec 6 2018, 12:03:21
Post #1
BAN
Banned till
Jun 15 2019, 17:50:12



(IMG:http://metalarea.org/images/audiocovers/2018_Dec/acov_tid313823_thumb.jpg)

*Artist: Forest Of Shadows
*Album: Among The Dormant Watchers
*Year: 2018
*Genre: Death/Doom Metal
*Country: Sweden (IMG:http://metalarea.org/forum/style_images/flags/Sweden.png)
*Format: mp3@CBR320kbps
*Size: 153MB

Tracklist:
1. Self Inflicted Torment 10:37
2. Drowned by Guilt 09:06
3. Lost Within 05:57
4. Dogs of Chernobyl 12:55
5. We, the Shameless 05:20
6. Lullaby 08:30
7. Yours to Devour 14:13
******************************
Total playing time: 1:06:38

Technical info
(IMG:http://metalarea.org/images/spectrogram/2018_Dec/529fa34b3dc8b3708a03acc19cb2f7b1.png)
Input File: 01. Self Inflicted Torment.mp3
Channels : 2
Sample Rate : 44100
Precision : 16-bit
Duration : 00:10:37.48 = 28112648 samples = 47810.6 CDDA sectors
File Size : 25.7M
Bit Rate : 322k
Sample Encoding: MPEG audio (layer I, II or III)
Comments :
Title=Self Inflicted Torment
Artist=Forest of Shadows
Album=Among the Dormant Watchers
Tracknumber=1/7
Year=2018
Discnumber=1/1



Register


Go to the top of the page
  Insert nick Quick quote
+Quote Post
 
Start new topic
Replies (1 - 10)
post Dec 6 2018, 14:45:10
Post #2
BAN
Banned till
Jun 15 2019, 17:50:12



@320

Register




Go to the top of the page
  Insert nick Quick quote
+Quote Post
post Dec 6 2018, 16:16:05
Post #3
BAN
Banned till
Jun 15 2019, 17:50:12



Красиво, мощно и завораживающе.


Thanks:
(1) boby9052,
Go to the top of the page
  Insert nick Quick quote
+Quote Post
post Dec 6 2018, 16:32:24
Post #4

ME[ta]LLOMAN
**************
Group: Металариец
Posts: 4,896
Releases: 3
From: Hughes'sRegion\Avdeyevka
On Forums: 13 years 1 month
Thanks: 1822 time(s)
Honduras


неплохо, да.. в аккурат по нонешней погоде атмосфэррка


Thanks:
Go to the top of the page
  Insert nick Quick quote
+Quote Post
post Dec 7 2018, 09:55:50
Post #5
BAN
Banned till
Jun 15 2019, 17:50:12



Альбом года в этом поджанре. (IMG:style_emoticons/default/pray.gif)
Go to the top of the page
  Insert nick Quick quote
+Quote Post
post Dec 7 2018, 11:58:37
Post #6

赑屃
***
Group: Завсегдатай
Posts: 235
Releases: 5
From: Луганск
On Forums: 2 years 1 month
Thanks: 115 time(s)
Russian Federation


Шведские Форесты на редкость мягко и приятно заходят.. Такая тёплая, щемящая мелодичность, плавность звучания, тембр вокала.. Отличный альбом в коллекцию на излёте года.

ПыСы: альбом заходит на третий раз в плеере.. Пробирает до мурашек по спине и слёз, сука, умиления.. Вызывает какую-то неосознанную подсознательную ностальгию, тоску по прошедшим славным временам..


Thanks:
Go to the top of the page
  Insert nick Quick quote
+Quote Post
post Dec 7 2018, 18:46:55
Post #7

Литр
*
Group: Подсевший
Posts: 57
Releases: 0
On Forums: 10 years 6 months
Thanks: 40 time(s)
Russian Federation


FLAC tracs from the web:
Register
Go to the top of the page
  Insert nick Quick quote
+Quote Post
post Dec 8 2018, 08:29:40
Post #8

Group: Подсевший
Posts: 11
Releases: 0
On Forums: 1 year 4 months
Thanks: 4 time(s)
Ukraine


Отличный альбом, побольше бы такого. в топ года
Go to the top of the page
  Insert nick Quick quote
+Quote Post
post Dec 8 2018, 17:58:52
Post #9

Necromancer
Group Icon
Group: Curation team
Posts: 10,875
Releases: 271
From: Зеленоград
On Forums: 12 years 7 months
Thanks: 8716 time(s)
Russian Federation


Хороший альбом, но раздавать ему медали не стоит.
Go to the top of the page
  Insert nick Quick quote
+Quote Post
post Dec 8 2018, 18:09:26
Post #10

Правь статус, ####!111
**************
Group: Металариец
Posts: 2,378
Releases: 2
From: Dnipro
On Forums: 10 years 10 months
Thanks: 622 time(s)
Ukraine


У них всегда была хорошая музыка, но чистый вокал всегда все портил, как тут не знаю.
Go to the top of the page
  Insert nick Quick quote
+Quote Post
post Dec 21 2018, 10:12:47
Post #11

Два Литра
**
Group: Завсегдатай
Posts: 120
Releases: 0
From: TheМля
On Forums: 12 years 7 months
Thanks: 37 time(s)
Belarus


Проникся музыкой.
Go to the top of the page
  Insert nick Quick quote
+Quote Post

Reply to this topicStart new topic
1 User(s) are reading this topic (1 Guests and 0 Anonymous Users)
0 Members:

 



- Lo-Fi Version Support form
Copyrights and abuse reports form
Time is now: 24th May 2019 - 13:11:46