Welcome Guest ( Log In | Register )

> Releases Upload / Добавление релизов

Добавить релиз тут / Click here to add release
Рекомендованные обменники / Recommended file shares

> Forest Of Shadows - Among The Dormant Watchers (2018), Death/Doom Metal
post Dec 6 2018, 12:03:21
Post #1

Правь статус, ####!111
**************
Group: Металариец
Posts: 35,266
Releases: 523
On Forums: 9 years 6 months
Thanks: 27373 time(s)
Russian Federation


(IMG:http://metalarea.org/images/audiocovers/2018_Dec/acov_tid313823_thumb.jpg)

*Artist: Forest Of Shadows
*Album: Among The Dormant Watchers
*Year: 2018
*Genre: Death/Doom Metal
*Country: Sweden (IMG:http://metalarea.org/forum/style_images/flags/Sweden.png)
*Format: mp3@CBR320kbps
*Size: 153MB

Tracklist:
1. Self Inflicted Torment 10:37
2. Drowned by Guilt 09:06
3. Lost Within 05:57
4. Dogs of Chernobyl 12:55
5. We, the Shameless 05:20
6. Lullaby 08:30
7. Yours to Devour 14:13
******************************
Total playing time: 1:06:38

Technical info
(IMG:http://metalarea.org/images/spectrogram/2018_Dec/529fa34b3dc8b3708a03acc19cb2f7b1.png)
Input File: 01. Self Inflicted Torment.mp3
Channels : 2
Sample Rate : 44100
Precision : 16-bit
Duration : 00:10:37.48 = 28112648 samples = 47810.6 CDDA sectors
File Size : 25.7M
Bit Rate : 322k
Sample Encoding: MPEG audio (layer I, II or III)
Comments :
Title=Self Inflicted Torment
Artist=Forest of Shadows
Album=Among the Dormant Watchers
Tracknumber=1/7
Year=2018
Discnumber=1/1



Register


Go to the top of the page
  Insert nick Quick quote
+Quote Post
 
Start new topic
Replies (1 - 9)
post Dec 6 2018, 14:45:10
Post #2

Правь статус, ####!111
**************
Group: Металариец
Posts: 35,266
Releases: 523
On Forums: 9 years 6 months
Thanks: 27373 time(s)
Russian Federation


@320

Register




Go to the top of the page
  Insert nick Quick quote
+Quote Post
post Dec 6 2018, 16:16:05
Post #3

Правь статус, ####!111
**************
Group: Металариец
Posts: 35,266
Releases: 523
On Forums: 9 years 6 months
Thanks: 27373 time(s)
Russian Federation


Красиво, мощно и завораживающе.
Go to the top of the page
  Insert nick Quick quote
+Quote Post
post Dec 6 2018, 16:32:24
Post #4

ME[ta]LLOMAN
**************
Group: Металариец
Posts: 4,882
Releases: 3
From: Hughes'sRegion\Avdeyevka
On Forums: 12 years 7 months
Thanks: 1780 time(s)
Honduras


неплохо, да.. в аккурат по нонешней погоде атмосфэррка


Thanks:
Go to the top of the page
  Insert nick Quick quote
+Quote Post
post Dec 7 2018, 09:55:50
Post #5

Правь статус, ####!111
**************
Group: Металариец
Posts: 35,266
Releases: 523
On Forums: 9 years 6 months
Thanks: 27373 time(s)
Russian Federation


Альбом года в этом поджанре. (IMG:style_emoticons/default/pray.gif)
Go to the top of the page
  Insert nick Quick quote
+Quote Post
post Dec 7 2018, 11:58:37
Post #6

赑屃
***
Group: Завсегдатай
Posts: 214
Releases: 5
From: Луганск
On Forums: 1 year 8 months
Thanks: 105 time(s)
Russian Federation


Шведские Форесты на редкость мягко и приятно заходят.. Такая тёплая, щемящая мелодичность, плавность звучания, тембр вокала.. Отличный альбом в коллекцию на излёте года.

ПыСы: альбом заходит на третий раз в плеере.. Пробирает до мурашек по спине и слёз, сука, умиления.. Вызывает какую-то неосознанную подсознательную ностальгию, тоску по прошедшим славным временам..


Thanks:
Go to the top of the page
  Insert nick Quick quote
+Quote Post
post Dec 7 2018, 18:46:55
Post #7

Group: Подсевший
Posts: 31
Releases: 0
On Forums: 10 years 3 weeks
Thanks: 35 time(s)
Russian Federation


FLAC tracs from the web:
Register
Go to the top of the page
  Insert nick Quick quote
+Quote Post
post Dec 8 2018, 08:29:40
Post #8

Group: Дух
Posts: 8
Releases: 0
On Forums: 11 months 1 week
Thanks: 3 time(s)
Ukraine


Отличный альбом, побольше бы такого. в топ года
Go to the top of the page
  Insert nick Quick quote
+Quote Post
post Dec 8 2018, 17:58:52
Post #9

Necromancer
Group Icon
Group: Curation team
Posts: 10,759
Releases: 271
From: Зеленоград
On Forums: 12 years 2 months
Thanks: 8644 time(s)
Russian Federation


Хороший альбом, но раздавать ему медали не стоит.
Go to the top of the page
  Insert nick Quick quote
+Quote Post
post Dec 8 2018, 18:09:26
Post #10

Мегаманьяк
***********
Group: Металариец
Posts: 1,738
Releases: 0
From: Dnipro
On Forums: 10 years 4 months
Thanks: 459 time(s)
Ukraine


У них всегда была хорошая музыка, но чистый вокал всегда все портил, как тут не знаю.
Go to the top of the page
  Insert nick Quick quote
+Quote Post

Reply to this topicStart new topic
1 User(s) are reading this topic (1 Guests and 0 Anonymous Users)
0 Members:

 



- Lo-Fi Version Support form
Copyrights and abuse reports form
Time is now: 10th December 2018 - 15:14:33