Welcome Guest ( Log In | Register )

> Majestic Downfall - Waters Of Fate (2018), Doom/Death Metal
post Dec 6 2018, 12:25:13
Post #1

Аннигилятор пивА
Group Icon
Group: V.I.P
Posts: 52,354
Releases: 16558
From: Koenigsberg - TILZIT
On Forums: 12 years 9 months
Thanks: 359730 time(s)
Russian Federation


(IMG:https://metalarea.org/images/audiocovers/2018_Dec/acov_tid313824_thumb.jpg)

*Artist: Majestic Downfall
*Album: Waters Of Fate
*Year: 2018
*Genre: Doom/Death Metal
*Country: United States (IMG:https://metalarea.org/forum/style_images/flags/United%20States.png)
*Format: mp3@CBR320kbps
*Size: 136MB

Tracklist:
1. Veins 13:05
2. Waters of Fate 11:47
3. Contagious Symmetry 11:29
4. Spore 02:18
5. Collapse Pitch Black 13:43
6. Waters of Faith (bonus track) 11:31
******************************
Total playing time: 01:03:53




Extended info
Alfonso Sánchez - Drums (Evilforces, Isolated, Ticket to Hell, Umbrälia, ex-Sorrowful, ex-The Ill over Death, ex-Shemhamphorash
Jacobo Córdova - Vocals, Guitars, Bass, Keyboards, Drums (Ticket to Hell, Zombiefication, ex-Antiqua, ex-The Ill over Death, ex-Dies Irae)
Session members:
Dah – Lead Guitar (Dies Irae, The Ill over Death)
Aly – Lead Guitar (Gnosys, Umbrälia)
Mephisto - Guitars (2016-2018) See also: Vst, Dark Matter, ex-Egmont


Technical info
(IMG:https://metalarea.org/images/spectrogram/2018_Dec/5bda68f7b8a6c4b60c4c8a7cdc2b2d6a.png)
Input File: 02. Waters of Fate.mp3
Channels : 2
Sample Rate : 44100
Precision : 16-bit
Duration : 00:11:47.65 = 31207233 samples = 53073.5 CDDA sectors
File Size : 28.4M
Bit Rate : 321k
Sample Encoding: MPEG audio (layer I, II or III)
Comments :
Title=Waters of Fate
Artist=Majestic Downfall
Album=Waters of Fate
Tracknumber=2
Year=2018
Discnumber=1



Register


Go to the top of the page
  Insert nick Quick quote
+Quote Post
 
Start new topic
Replies (1 - 7)
post Dec 6 2018, 14:44:04
Post #2

Аннигилятор пивА
Group Icon
Group: V.I.P
Posts: 52,354
Releases: 16558
From: Koenigsberg - TILZIT
On Forums: 12 years 9 months
Thanks: 359730 time(s)
Russian Federation


MIRROR
Register



Go to the top of the page
  Insert nick Quick quote
+Quote Post
post Dec 6 2018, 14:44:11
Post #3

\m/
Group Icon
Group: S-moderation team
Posts: 7,619
Releases: 19
From: Петропавловск-Камчатский
On Forums: 9 years 9 months
Thanks: 7006 time(s)
Russian Federation


Added links by Samaritianin
Go to the top of the page
  Insert nick Quick quote
+Quote Post
post Dec 6 2018, 15:26:12
Post #4

Правь статус, ####!111
**************
Group: Металариец
Posts: 38,555
Releases: 559
On Forums: 9 years 9 months
Thanks: 29352 time(s)
Russian Federation


@320

Register


Go to the top of the page
  Insert nick Quick quote
+Quote Post
post Dec 8 2018, 07:11:46
Post #5

Шесть Литров
******
Group: Металариец
Posts: 501
Releases: 5
From: Ивантеевка, Московская область
On Forums: 11 years 3 months
Thanks: 167 time(s)
Russian Federation


Приятная вещь, но на 2-3 раза.
Go to the top of the page
  Insert nick Quick quote
+Quote Post
post Dec 8 2018, 18:06:39
Post #6

Правь статус, ####!111
**************
Group: Металариец
Posts: 2,224
Releases: 1
From: Dnipro
On Forums: 10 years 8 months
Thanks: 566 time(s)
Ukraine


Уважаемая группка, а ведь были же всегда мексиканцами?
Go to the top of the page
  Insert nick Quick quote
+Quote Post
post Dec 8 2018, 18:20:56
Post #7

Аннигилятор пивА
Group Icon
Group: V.I.P
Posts: 52,354
Releases: 16558
From: Koenigsberg - TILZIT
On Forums: 12 years 9 months
Thanks: 359730 time(s)
Russian Federation


ЦИТАТА(isvili @ Dec 8 2018, 17:06:39) *
Уважаемая группка, а ведь были же всегда мексиканцами?

Не все однозначно (IMG:style_emoticons/default/1488.gif) The band was formed while Jacobo was in Dallas, Texas, USA.
Фронтмен мотается как блоха, из штатов переехал в мексику потом в австралию, потом опять в штаты... короче путешествует, а с ним и дислокция
Go to the top of the page
  Insert nick Quick quote
+Quote Post
post Dec 29 2018, 18:38:57
Post #8

####!111
**************
Group: Металариец
Posts: 3,697
Releases: 124
From: The Mountain Of DOOM
On Forums: 11 years 5 months
Thanks: 5167 time(s)
Russian Federation


Шикарный дум.
И почему про группу забывают, даже когда речь идёт о втором эшелоне?
Go to the top of the page
  Insert nick Quick quote
+Quote Post

Reply to this topicStart new topic
2 User(s) are reading this topic (2 Guests and 0 Anonymous Users)
0 Members:

 



- Lo-Fi Version Support form
Copyrights and abuse reports form
Time is now: 22nd March 2019 - 13:18:05