Welcome Guest ( Log In | Register )

> Releases Upload / Добавление релизов

Добавить релиз тут / Click here to add release
Рекомендованные обменники / Recommended file shares

> Condor - El Valle Del Condor (2018), Death/Doom Metal
post Dec 6 2018, 12:31:05
Post #1

Group: Подсевший
Posts: 14
Releases: 4
On Forums: 1 year 6 months
Thanks: 75 time(s)
Italy


(IMG:http://metalarea.org/images/audiocovers/2018_Dec/acov_tid313826_thumb.jpg)

*Artist: Condor
*Album: El Valle Del Condor
*Year: 2018
*Genre: Death/Doom Metal
*Country: Colombia (IMG:http://metalarea.org/forum/style_images/flags/Colombia.png)
*Format: mp3@CBR320kbps
*Size: 84MB

Tracklist:
01. Obertura
02. El Páramo de Pisba
03. La Cuchilla del Tambo
04. Santa Rosa de Osos
05. Aw´tha
06. Gudrún
07. Cabeza de Buitre
08. Raudo es el Cauca
09. El Valle del Cóndor
******************************
Total playing time: 36:13

Technical info
(IMG:http://metalarea.org/images/spectrogram/2018_Dec/737406de515028a53687ddb24423d79a.png)
Input File: 03 La Cuchilla del Tambo.mp3
Channels : 2
Sample Rate : 44100
Precision : 16-bit
Duration : 00:02:00.88 = 5330588 samples = 9065.63 CDDA sectors
File Size : 4.96M
Bit Rate : 328k
Sample Encoding: MPEG audio (layer I, II or III)
Comments :
Title=La Cuchilla del Tambo
Artist=Cóndor
Album=El Valle del Cóndor
Tracknumber=3
Year=2018



Register


Go to the top of the page
  Insert nick Quick quote
+Quote Post
 
Start new topic
Replies (1 - 3)
post Dec 6 2018, 15:19:38
Post #2

Маньяк
**********
Group: Металариец
Posts: 1,017
Releases: 0
On Forums: 7 years 6 months
Thanks: 433 time(s)
Unknown




Thanks:
(2) Foneg, KVRT,
Go to the top of the page
  Insert nick Quick quote
+Quote Post
post Dec 6 2018, 16:21:13
Post #3

ME[ta]LLOMAN
**************
Group: Металариец
Posts: 4,882
Releases: 3
From: Hughes'sRegion\Avdeyevka
On Forums: 12 years 7 months
Thanks: 1780 time(s)
Honduras


подача портит и без того мутноватую картину.. (IMG:style_emoticons/default/poke_g.gif)


Thanks:
(1) Foneg,
Go to the top of the page
  Insert nick Quick quote
+Quote Post
post Dec 8 2018, 18:05:22
Post #4

Мегаманьяк
***********
Group: Металариец
Posts: 1,738
Releases: 0
From: Dnipro
On Forums: 10 years 4 months
Thanks: 459 time(s)
Ukraine


Death/Doom Metal на испанском? Да ну на.
Go to the top of the page
  Insert nick Quick quote
+Quote Post

Reply to this topicStart new topic
2 User(s) are reading this topic (2 Guests and 0 Anonymous Users)
0 Members:

 



- Lo-Fi Version Support form
Copyrights and abuse reports form
Time is now: 10th December 2018 - 14:33:44