Welcome Guest ( Log In | Register )

> Forum rules / Правила раздела

Here go releases which can't go to New releases forums due lack of information, stolen links or incorrect data and just founded in other sites links with minimum info. Reissue of this releases through Add release form with added/corrected data, info and own links highly welcomed.

Сюда уходят релизы, не пропущенные в основные релизные форумы по причинам отсутствия, недостаточности или неверности/некорректности сопровождающей информации, содержащие ссылки, указывающие на файлы, залитые не автором темы, а так же просто найденные где-то ссылки с минимумом информации. Переоформление тем отсюда через форму Добавления релиза с перезаливкой ссылок крайне приветствуется.

> Hecate Enthroned - Temples That Breathe [single] (2018), Melodic Black Metal (D)
post Dec 6 2018, 12:31:42
Post #1

Правь статус, ####!111
**************
Group: Металариец
Posts: 38,572
Releases: 559
On Forums: 9 years 9 months
Thanks: 29413 time(s)
Russian Federation


(IMG:http://metalarea.org/images/audiocovers/2018_Dec/acov_tid313827_thumb.jpg)

*Artist: Hecate Enthroned
*Album: Temples That Breathe [single]
*Year: 2018
*Genre: Melodic Black Metal
*Country: United Kingdom (IMG:http://metalarea.org/forum/style_images/flags/United%20Kingdom.png)
*Format: mp3@CBR320kbps
*Size: 10MB

Tracklist:
1. Temples That Breathe
******************************
Total playing time: 4:35

Technical info
(IMG:http://metalarea.org/images/spectrogram/2018_Dec/c6bd2b5c98462a1ecc509f70b7c49264.png)
Input File: 01. Temples That Breathe.mp3
Channels : 2
Sample Rate : 44100
Precision : 16-bit
Duration : 00:04:35.74 = 12160002 samples = 20680.3 CDDA sectors
File Size : 11.1M
Bit Rate : 323k
Sample Encoding: MPEG audio (layer I, II or III)
Comments :
Title=Temples That Breathe
Artist=Hecate Enthroned
Album=Temples That Breathe
Tracknumber=1/1
Year=2018
Discnumber=1/1



Register


Go to the top of the page
  Insert nick Quick quote
+Quote Post
 
Start new topic
Replies (1 - 4)
post Dec 6 2018, 14:53:42
Post #2

Правь статус, ####!111
**************
Group: Металариец
Posts: 38,572
Releases: 559
On Forums: 9 years 9 months
Thanks: 29413 time(s)
Russian Federation


@320

Register
Go to the top of the page
  Insert nick Quick quote
+Quote Post
post Dec 6 2018, 21:18:13
Post #3

Правь статус, ####!111
**************
Group: Металариец
Posts: 38,572
Releases: 559
On Forums: 9 years 9 months
Thanks: 29413 time(s)
Russian Federation


Крепкий трэк.
Go to the top of the page
  Insert nick Quick quote
+Quote Post
post Jan 17 2019, 13:26:30
Post #4

Правь статус, ####!111
**************
Group: Металариец
Posts: 38,572
Releases: 559
On Forums: 9 years 9 months
Thanks: 29413 time(s)
Russian Federation


Ищо один новый трэкан

Revelations in Autumn Flame

@320

Register


Thanks:
Go to the top of the page
  Insert nick Quick quote
+Quote Post
post Jan 17 2019, 15:51:16
Post #5

Forever Underground
**************
Group: Металариец
Posts: 5,550
Releases: 0
On Forums: 3 years 11 months
Thanks: 5425 time(s)
Unknown


New album will be released 25/01/2019:
https://www.metal-archives.com/albums/Hecat...ess_Aeon/749820
(IMG:style_emoticons/default/true_black.gif)


Thanks:
(1) Occultas,
Go to the top of the page
  Insert nick Quick quote
+Quote Post

Reply to this topicStart new topic
1 User(s) are reading this topic (1 Guests and 0 Anonymous Users)
0 Members:

 



- Lo-Fi Version Support form
Copyrights and abuse reports form
Time is now: 25th March 2019 - 10:29:04