Welcome Guest ( Log In | Register )

> Releases Upload / Добавление релизов

Добавить релиз тут / Click here to add release
Рекомендованные обменники / Recommended file shares

> Methedras - The Ventriloquist (2018), Death/Thrash Metal (D5)
post Dec 6 2018, 12:46:37
Post #1

Аннигилятор пивА
Group Icon
Group: V.I.P
Posts: 50,725
Releases: 15804
From: Koenigsberg - TILZIT
On Forums: 12 years 6 months
Thanks: 344803 time(s)
Russian Federation


(IMG:https://metalarea.org/images/audiocovers/2018_Dec/acov_tid313829_thumb.jpg)

*Artist: Methedras
*Album: The Ventriloquist
*Year: 2018
*Genre: Death/Thrash Metal
*Country: Italy (IMG:https://metalarea.org/forum/style_images/flags/Italy.png)
*Format: mp3@CBR320kbps
*Size: 97MB

Tracklist:
1. A Deal with the Devil 03:59
2. Sham Knockout 04:02
3. Blind 03:51
4. Dead Silence 04:30
5. Fire Within 03:55
6. Stab Me Again 03:58
7. Alive or Convict 03:07
8. Sleepwalking 03:46
9. Into the Maze 03:55
10. Watch Me Fall 04:59
******************************
Total playing time: 40:02



Extended info
Andrea Bochi - Bass, Daniele Gotti - Drums, Daniele Colombo - Guitars, Claudio Facheris - Vocals


Technical info
(IMG:https://metalarea.org/images/spectrogram/2018_Dec/573d1ff049a428e380720d201d8325e6.png)
Input File: 02 Sham Knockout.mp3
Channels : 2
Sample Rate : 44100
Precision : 16-bit
Duration : 00:04:02.35 = 10687679 samples = 18176.3 CDDA sectors
File Size : 10.2M
Bit Rate : 337k
Sample Encoding: MPEG audio (layer I, II or III)
Comments :
Title=Sham Knockout
Artist=METHEDRAS
Album=The Ventriloquist
Tracknumber=2/10
Year=2018
Genre=Rock
Discnumber=1/1



Register


Go to the top of the page
  Insert nick Quick quote
+Quote Post
 
Start new topic
Replies (1 - 2)
post Dec 6 2018, 14:48:00
Post #2

Аннигилятор пивА
Group Icon
Group: V.I.P
Posts: 50,725
Releases: 15804
From: Koenigsberg - TILZIT
On Forums: 12 years 6 months
Thanks: 344803 time(s)
Russian Federation


MIRROR
Register




Thanks:
Go to the top of the page
  Insert nick Quick quote
+Quote Post
post Dec 6 2018, 14:49:08
Post #3

Правь статус, ####!111
**************
Group: Металариец
Posts: 35,264
Releases: 523
On Forums: 9 years 6 months
Thanks: 27373 time(s)
Russian Federation


@320

Register


Thanks:
(1) metala,
Go to the top of the page
  Insert nick Quick quote
+Quote Post

Reply to this topicStart new topic
1 User(s) are reading this topic (1 Guests and 0 Anonymous Users)
0 Members:

 



- Lo-Fi Version Support form
Copyrights and abuse reports form
Time is now: 10th December 2018 - 13:48:05