Welcome Guest ( Log In | Register )

> Forum rules / Правила раздела

Here go releases which can't go to New releases forums due lack of information, stolen links or incorrect data and just founded in other sites links with minimum info. Reissue of this releases through Add release form with added/corrected data, info and own links highly welcomed.

Сюда уходят релизы, не пропущенные в основные релизные форумы по причинам отсутствия, недостаточности или неверности/некорректности сопровождающей информации, содержащие ссылки, указывающие на файлы, залитые не автором темы, а так же просто найденные где-то ссылки с минимумом информации. Переоформление тем отсюда через форму Добавления релиза с перезаливкой ссылок крайне приветствуется.

> Ols - Ols (2016), Dark Folk, Neofolk
post Dec 6 2018, 13:07:33
Post #1

Пять Литров
*****
Group: Металариец
Posts: 479
Releases: 5
From: Ивантеевка, Московская область
On Forums: 11 years 1 month
Thanks: 154 time(s)
Russian Federation


(IMG:http://metalarea.org/images/audiocovers/2018_Dec/acov_tid313831_thumb.jpg)

*Artist: Ols
*Album: Ols
*Year: 2016
*Genre: Dark Folk, Neofolk
*Country: Poland (IMG:http://metalarea.org/forum/style_images/flags/Poland.png)
*Format: mp3@CBR320kbps
*Size: 69MB

Tracklist:
1. O Drzewach 05:51
2. Woda 05:47
3. Chmielna 05:42
4. Kołysanka 05:37
5. Krew Na Mchu 05:05
6. Pożegnalna 06:03
******************************
Total playing time: 34:05



Technical info
(IMG:http://metalarea.org/images/spectrogram/2018_Dec/d9d0ee6b83ad78dbcbaa92c04b255218.png)
Input File: 01 - O Drzewach.mp3
Channels : 2
Sample Rate : 44100
Precision : 16-bit
Duration : 00:05:50.90 = 15474778 samples = 26317.6 CDDA sectors
File Size : 14.1M
Bit Rate : 321k
Sample Encoding: MPEG audio (layer I, II or III)
Comments :
Title=O Drzewach
Artist=Ols
Album=Ols
Tracknumber=01
Year=2016
Genre=Dark Folk/Neofolk



Register


Thanks:
Go to the top of the page
  Insert nick Quick quote
+Quote Post
 
Start new topic
Replies (1 - 2)
post Dec 6 2018, 14:46:33
Post #2

\m/
Group Icon
Group: S-moderation team
Posts: 7,589
Releases: 19
From: Петропавловск-Камчатский
On Forums: 9 years 7 months
Thanks: 6954 time(s)
Russian Federation



 ! 

Rules 2.4 + mail.ru не разрешён
 
Go to the top of the page
  Insert nick Quick quote
+Quote Post
post Dec 10 2018, 12:23:45
Post #3

Пять Литров
*****
Group: Металариец
Posts: 479
Releases: 5
From: Ивантеевка, Московская область
On Forums: 11 years 1 month
Thanks: 154 time(s)
Russian Federation


Register
Go to the top of the page
  Insert nick Quick quote
+Quote Post

Reply to this topicStart new topic
2 User(s) are reading this topic (2 Guests and 0 Anonymous Users)
0 Members:

 



- Lo-Fi Version Support form
Copyrights and abuse reports form
Time is now: 20th January 2019 - 08:08:27