Welcome Guest ( Log In | Register )

> Releases Upload / Добавление релизов

Добавить релиз тут / Click here to add release
Рекомендованные обменники / Recommended file shares

> Infective Symphony - Voice Of Existence (2018), Progressive Death Metal
post Dec 6 2018, 13:17:40
Post #1

Аннигилятор пивА
Group Icon
Group: V.I.P
Posts: 50,728
Releases: 15810
From: Koenigsberg - TILZIT
On Forums: 12 years 6 months
Thanks: 344804 time(s)
Russian Federation


(IMG:https://metalarea.org/images/audiocovers/2018_Dec/acov_tid313832_thumb.jpg)

*Artist: Infective Symphony
*Album: Voice Of Existence
*Year: 2018
*Genre: Progressive Death Metal
*Country: Mexico (IMG:https://metalarea.org/forum/style_images/flags/Mexico.png)
*Format: mp3@CBR320kbps
*Size: 114MB

Tracklist:
1. Photon Sphere 04:34
2. Bow to Eternity 04:31
3. Devoted Silence 04:31
4. The Twelfth Planet 04:43
5. Sense of Sickness 04:56
6. Ziusudra 05:34
7. Oscillating Time 07:03
8. Burning My Will 03:20
9. Skeptical Chymist 04:39
10. Casting the Soul Through Blood 02:04
******************************
Total playing time: 45:55



Extended info
Héctor Emilio Origel - Drums
Max Padilla - Guitars (lead), Vocals
Martin "Harris" - Bass (2014-present)
Dastan Bañuelos - Guitars (lead) (2016-present) See also: ex-Predator


Technical info
(IMG:https://metalarea.org/images/spectrogram/2018_Dec/e979fcccad1638c02a9ca241d68e7107.png)
Input File: 02 Bow to Eternity.mp3
Channels : 2
Sample Rate : 44100
Precision : 16-bit
Duration : 00:04:30.64 = 11935356 samples = 20298.2 CDDA sectors
File Size : 11.9M
Bit Rate : 351k
Sample Encoding: MPEG audio (layer I, II or III)
Comments :
Title=Bow to Eternity
Artist=Infective Symphony
Album=Voice of Existence
Tracknumber=2/10
Year=2018
Genre=Metal
Discnumber=1/1



Register


Go to the top of the page
  Insert nick Quick quote
+Quote Post
 
Start new topic
Replies (1 - 1)
post Dec 6 2018, 14:54:59
Post #2

Аннигилятор пивА
Group Icon
Group: V.I.P
Posts: 50,728
Releases: 15810
From: Koenigsberg - TILZIT
On Forums: 12 years 6 months
Thanks: 344804 time(s)
Russian Federation


Produced by Animal Records and V. Santura (Obscura, Triptykon, Dark Fortress)
MIRROR
Register

(IMG:style_emoticons/default/pray.gif)


Thanks:
Go to the top of the page
  Insert nick Quick quote
+Quote Post

Reply to this topicStart new topic
1 User(s) are reading this topic (1 Guests and 0 Anonymous Users)
0 Members:

 



- Lo-Fi Version Support form
Copyrights and abuse reports form
Time is now: 10th December 2018 - 14:26:32