Welcome Guest ( Log In | Register )

> Releases Upload / Добавление релизов

Добавить релиз тут / Click here to add release
Рекомендованные обменники / Recommended file shares

> Wolfhorde - Hounds Of Perdition (2019), Folk/Black/Death Metal
post Dec 6 2018, 13:22:58
Post #1

Аннигилятор пивА
Group Icon
Group: V.I.P
Posts: 50,725
Releases: 15804
From: Koenigsberg - TILZIT
On Forums: 12 years 6 months
Thanks: 344803 time(s)
Russian Federation


(IMG:https://metalarea.org/images/audiocovers/2018_Dec/acov_tid313833_thumb.jpg)

*Artist: Wolfhorde
*Album: Hounds Of Perdition
*Year: 2019
*Genre: Folk/Black/Death Metal
*Country: Finland (IMG:https://metalarea.org/forum/style_images/flags/Finland.png)
*Format: mp3@CBR320kbps
*Size: 99MB

Tracklist:
1. Chimera 09:37
2. Doctor of the Plague 04:11
3. Black Song 04:22
4. Towers of Silence 04:27
5. Forged in Ice 05:02
6. Kill the Light 03:51
7. Hounds of Perdition 11:44
******************************
Total playing time: 43:14




Technical info
(IMG:https://metalarea.org/images/spectrogram/2018_Dec/994e674f5b7a10938ca9fe2dc25b152e.png)
Input File: 02. Doctor of the Plague.mp3
Channels : 2
Sample Rate : 44100
Precision : 16-bit
Duration : 00:04:11.79 = 11103939 samples = 18884.2 CDDA sectors
File Size : 10.4M
Bit Rate : 329k
Sample Encoding: MPEG audio (layer I, II or III)
Comments :
Title=Doctor of the Plague
Artist=Wolfhorde
Album=Hounds of Perdition
Tracknumber=2/7
Year=2019
Genre=Folk Metal



Register


This post has been edited by Borderline1991: Dec 6 2018, 15:23:10


Go to the top of the page
  Insert nick Quick quote
+Quote Post
 
Start new topic
Replies (1 - 4)
post Dec 6 2018, 14:51:45
Post #2

Аннигилятор пивА
Group Icon
Group: V.I.P
Posts: 50,725
Releases: 15804
From: Koenigsberg - TILZIT
On Forums: 12 years 6 months
Thanks: 344803 time(s)
Russian Federation


mirror
Register



Nuoskajalka - Bass
Hukkapätkä - Vocals, Drums, Percussion (2000-present)
Werihukka - Guitar, Traditional instruments, Keyboards (2001-present)
(IMG:style_emoticons/default/pray.gif)


Go to the top of the page
  Insert nick Quick quote
+Quote Post
post Dec 7 2018, 02:24:42
Post #3

Шесть Литров
******
Group: Металариец
Posts: 507
Releases: 26
On Forums: 9 years 6 months
Thanks: 534 time(s)
Chile


Thanks (IMG:style_emoticons/default/dwarf-1.gif)
Go to the top of the page
  Insert nick Quick quote
+Quote Post
post Dec 8 2018, 17:59:03
Post #4

Мегаманьяк
***********
Group: Металариец
Posts: 1,738
Releases: 0
From: Dnipro
On Forums: 10 years 4 months
Thanks: 459 time(s)
Ukraine


Весточка из будущего. И все равно лучший у них Deathknot (2010)
Go to the top of the page
  Insert nick Quick quote
+Quote Post
post Dec 8 2018, 18:29:20
Post #5

Аннигилятор пивА
Group Icon
Group: V.I.P
Posts: 50,725
Releases: 15804
From: Koenigsberg - TILZIT
On Forums: 12 years 6 months
Thanks: 344803 time(s)
Russian Federation


ЦИТАТА(isvili @ Dec 8 2018, 16:59:03) *
Весточка из будущего. И все равно лучший у них Deathknot (2010)

не соглашусь, на любителя, дебютная епишка хорошая, но сыроватая и прямолинейная, с тех пор прогресс просто огромный, телеги и бронзовые топоры сменили на парусную ладью с железными мечами
Go to the top of the page
  Insert nick Quick quote
+Quote Post

Reply to this topicStart new topic
1 User(s) are reading this topic (1 Guests and 0 Anonymous Users)
0 Members:

 



- Lo-Fi Version Support form
Copyrights and abuse reports form
Time is now: 10th December 2018 - 13:39:49