Welcome Guest ( Log In | Register )

> Releases Upload / Добавление релизов

Добавить релиз тут / Click here to add release
Рекомендованные обменники / Recommended file shares

> Plague Years - Unholy Infestation [ep] (2018), Old School Death/Thrash Metal
post Dec 6 2018, 13:48:36
Post #1

Аннигилятор пивА
Group Icon
Group: V.I.P
Posts: 50,729
Releases: 15810
From: Koenigsberg - TILZIT
On Forums: 12 years 6 months
Thanks: 344811 time(s)
Russian Federation


(IMG:https://metalarea.org/images/audiocovers/2018_Dec/acov_tid313836_thumb.jpg)

*Artist: Plague Years
*Album: Unholy Infestation [ep]
*Year: 2018
*Genre: Old School Death/Thrash Metal
*Country: United States (IMG:https://metalarea.org/forum/style_images/flags/United%20States.png)
*Format: mp3@CBR320kbps
*Size: 61MB

Tracklist:
1. Unholy Infestation 05:11
2. Outer Darkness 04:38
3. Hellborn 05:33
4. Aeon of the Serpent 05:27
5. Taker of Life 03:09
6. Infernal Torment 04:54
******************************
Total playing time: 28:52




Extended info
Mike Jurysta - Drums See also: Breaking Wheel, Build and Destroy
Eric Lauder - Guitars (lead) See also: Build and Destroy
Jimmy Bilbrey - Guitars (rhythm)
Tim Englehardt - Vocals


Technical info
(IMG:https://metalarea.org/images/spectrogram/2018_Dec/be3b3f84722b0ea296afc603504d39bd.png)
Input File: 02. Outer Darkness.mp3
Channels : 2
Sample Rate : 44100
Precision : 16-bit
Duration : 00:04:38.33 = 12274221 samples = 20874.5 CDDA sectors
File Size : 11.2M
Bit Rate : 322k
Sample Encoding: MPEG audio (layer I, II or III)
Comments :
Title=Outer Darkness
Artist=Plague Years
Album=Unholy Infestation
Tracknumber=2
Year=2018
Discnumber=1



Register


Go to the top of the page
  Insert nick Quick quote
+Quote Post
 
Start new topic
Replies (1 - 1)
post Dec 6 2018, 14:50:58
Post #2

Аннигилятор пивА
Group Icon
Group: V.I.P
Posts: 50,729
Releases: 15810
From: Koenigsberg - TILZIT
On Forums: 12 years 6 months
Thanks: 344811 time(s)
Russian Federation


MIRROR
Register




Thanks:
(1) Ostinato,
Go to the top of the page
  Insert nick Quick quote
+Quote Post

Reply to this topicStart new topic
1 User(s) are reading this topic (1 Guests and 0 Anonymous Users)
0 Members:

 



- Lo-Fi Version Support form
Copyrights and abuse reports form
Time is now: 10th December 2018 - 14:52:31