Welcome Guest ( Log In | Register )

> Forum rules / Правила раздела

Here go releases which can't go to New releases forums due lack of information, stolen links or incorrect data and just founded in other sites links with minimum info. Reissue of this releases through Add release form with added/corrected data, info and own links highly welcomed.

Сюда уходят релизы, не пропущенные в основные релизные форумы по причинам отсутствия, недостаточности или неверности/некорректности сопровождающей информации, содержащие ссылки, указывающие на файлы, залитые не автором темы, а так же просто найденные где-то ссылки с минимумом информации. Переоформление тем отсюда через форму Добавления релиза с перезаливкой ссылок крайне приветствуется.

> Ols - Mszarna (2018), Dark Folk, Neofolk
post Dec 6 2018, 13:49:25
Post #1

Шесть Литров
******
Group: Металариец
Posts: 525
Releases: 5
From: Ивантеевка, Московская область
On Forums: 11 years 6 months
Thanks: 168 time(s)
Russian Federation


(IMG:http://metalarea.org/images/audiocovers/2018_Dec/acov_tid313837_thumb.jpg)

*Artist: Ols
*Album: Mszarna
*Year: 2018
*Genre: Dark Folk, Neofolk
*Country: Poland (IMG:http://metalarea.org/forum/style_images/flags/Poland.png)
*Format: mp3@CBR320kbps
*Size: 102MB

Tracklist:
1. Księżycowa 09:15
2. Zimowa 08:48
3. Wiedźmowa 05:36
4. Roślinna 07:24
5. Ja, Olcha 08:40
6. Miniona 09:26
******************************
Total playing time: 49:09



Technical info
(IMG:http://metalarea.org/images/spectrogram/2018_Dec/56443abcdd9511856734336862dab7cc.png)
Input File: 01 - Księżycowa.mp3
Channels : 2
Sample Rate : 44100
Precision : 16-bit
Duration : 00:09:15.48 = 24496624 samples = 41660.9 CDDA sectors
File Size : 22.3M
Bit Rate : 321k
Sample Encoding: MPEG audio (layer I, II or III)
Comments :
Title=Księżycowa
Artist=Ols
Album=Mszarna
Tracknumber=01
Year=2018
Genre=Dark Folk/Neofolk



Register


Thanks:
Go to the top of the page
  Insert nick Quick quote
+Quote Post
 
Start new topic
Replies (1 - 2)
post Dec 6 2018, 14:46:38
Post #2

\m/
Group Icon
Group: S-moderation team
Posts: 7,649
Releases: 19
From: Петропавловск-Камчатский
On Forums: 10 years 6 days
Thanks: 7086 time(s)
Russian Federation



 ! 

Rules 2.4 + mail.ru не разрешён
 
Go to the top of the page
  Insert nick Quick quote
+Quote Post
post Dec 10 2018, 12:24:56
Post #3

Шесть Литров
******
Group: Металариец
Posts: 525
Releases: 5
From: Ивантеевка, Московская область
On Forums: 11 years 6 months
Thanks: 168 time(s)
Russian Federation


Register
Go to the top of the page
  Insert nick Quick quote
+Quote Post

Reply to this topicStart new topic
1 User(s) are reading this topic (1 Guests and 0 Anonymous Users)
0 Members:

 



- Lo-Fi Version Support form
Copyrights and abuse reports form
Time is now: 18th June 2019 - 15:51:35