Welcome Guest ( Log In | Register )

> Releases Upload / Добавление релизов

Добавить релиз тут / Click here to add release
Рекомендованные обменники / Recommended file shares

 
Reply to this topicStart new topic
> Ganglion Cyst - Blistered Lymphomatoid Granulomatosis Lesions [ep] (2018), Goregrind/Noisegrind (D5)
post Dec 6 2018, 13:56:42
Post #1

Serial Uploader
Group Icon
Group: V.I.P
Posts: 33,385
Releases: 31655
From: Lithuania
On Forums: 10 years 6 months
Thanks: 361624 time(s)
Lithuania


(IMG:https://metalarea.org/images/audiocovers/2018_Dec/acov_tid313839_thumb.jpg)

*Artist: Ganglion Cyst
*Album: Blistered Lymphomatoid Granulomatosis Lesions [ep]
*Year: 2018
*Genre: Goregrind/Noisegrind
*Country: United States (IMG:https://metalarea.org/forum/style_images/flags/United%20States.png)
*Format: mp3@CBR320kbps
*Size: 15MB

Tracklist:
01. Fermented Flesh Strips 00:18
02. Extirpated Organ Sewage 00:24
03. Bodily Rejection Of Supplemental Fluids 00:24
04. Formaldehyde Overdose 00:31
05. Extracted From Waist Deep Black Water 00:26
06. Sweating Bloated Cavities 00:19
07. Crudely Severed At The Joint 00:19
08. Blunt Force Butchery 00:10
09. Plagued Orifice Defilement 00:26
10. Amputated And Gourmandized 00:45
11. Traumatic Experiences Of Fluid Engorgement 00:23
12. Sublime Stomatic Reflux 00:35
13. Penetrated Surgery Hole 00:48
******************************
Total playing time: 5:48



Technical info
(IMG:https://metalarea.org/images/spectrogram/2018_Dec/c7acc10a9fc6749bf4ff5e6d1d2abd47.png)
Input File: GANGLION CYST - Blistered Lymphomatoid Granulomatosis Lesions - 02 Extirpated Organ Sewage.mp3
Channels : 2
Sample Rate : 44100
Precision : 16-bit
Duration : 00:00:24.53 = 1081773 samples = 1839.75 CDDA sectors
File Size : 1.12M
Bit Rate : 366k
Sample Encoding: MPEG audio (layer I, II or III)
Comments :
Title=Extirpated Organ Sewage
Artist=GANGLION CYST
Album=Blistered Lymphomatoid Granulomatosis Lesions
Tracknumber=2
Year=2018



Register


Thanks:
Go to the top of the page
  Insert nick Quick quote
+Quote Post

Reply to this topicStart new topic
1 User(s) are reading this topic (1 Guests and 0 Anonymous Users)
0 Members:

 



- Lo-Fi Version Support form
Copyrights and abuse reports form
Time is now: 10th December 2018 - 14:09:15