Welcome Guest ( Log In | Register )

> Forum rules / Правила раздела

Here go releases which can't go to New releases forums due lack of information, stolen links or incorrect data and just founded in other sites links with minimum info. Reissue of this releases through Add release form with added/corrected data, info and own links highly welcomed.

Сюда уходят релизы, не пропущенные в основные релизные форумы по причинам отсутствия, недостаточности или неверности/некорректности сопровождающей информации, содержащие ссылки, указывающие на файлы, залитые не автором темы, а так же просто найденные где-то ссылки с минимумом информации. Переоформление тем отсюда через форму Добавления релиза с перезаливкой ссылок крайне приветствуется.

> Ewigheim - Vom Mond Gemalt [single] (2018), Gothic/Dark Metal (D8)
post Dec 6 2018, 14:03:48
Post #1

Правь статус, ####!111
**************
Group: Металариец
Posts: 36,460
Releases: 537
On Forums: 9 years 7 months
Thanks: 28212 time(s)
Russian Federation


(IMG:http://metalarea.org/images/audiocovers/2018_Dec/acov_tid313840_thumb.jpg)

*Artist: Ewigheim
*Album: Vom Mond Gemalt [single]
*Year: 2018
*Genre: Gothic/Dark Metal
*Country: Germany (IMG:http://metalarea.org/forum/style_images/flags/Germany.png)
*Format: mp3@CBR320kbps
*Size: 9MB

Tracklist:
1. Vom Mond Gemalt
******************************
Total playing time: 4:11

Technical info
(IMG:http://metalarea.org/images/spectrogram/2018_Dec/f43ed4a78c5f69c164b64508657afa46.png)
Input File: 01. Vom Mond gemalt.mp3
Channels : 2
Sample Rate : 44100
Precision : 16-bit
Duration : 00:04:11.89 = 11108173 samples = 18891.5 CDDA sectors
File Size : 10.1M
Bit Rate : 322k
Sample Encoding: MPEG audio (layer I, II or III)
Comments :
Title=Vom Mond gemalt
Artist=Ewigheim
Album=Vom Mond gemalt
Tracknumber=1/1
Year=2018
Discnumber=1/1



Register


Go to the top of the page
  Insert nick Quick quote
+Quote Post
 
Start new topic
Replies (1 - 2)
post Dec 6 2018, 15:14:19
Post #2

Правь статус, ####!111
**************
Group: Металариец
Posts: 36,460
Releases: 537
On Forums: 9 years 7 months
Thanks: 28212 time(s)
Russian Federation


@320

Register
Go to the top of the page
  Insert nick Quick quote
+Quote Post
post Dec 7 2018, 05:41:43
Post #3

Правь статус, ####!111
**************
Group: Металариец
Posts: 2,436
Releases: 11
From: Canada
On Forums: 11 years 7 months
Thanks: 1561 time(s)
Canada


Go to the top of the page
  Insert nick Quick quote
+Quote Post

Reply to this topicStart new topic
2 User(s) are reading this topic (2 Guests and 0 Anonymous Users)
0 Members:

 



- Lo-Fi Version Support form
Copyrights and abuse reports form
Time is now: 20th January 2019 - 01:23:25