Welcome Guest ( Log In | Register )

> Releases Upload / Добавление релизов

Добавить релиз тут / Click here to add release
Рекомендованные обменники / Recommended file shares

> Ewigheim - Vom Mond Gemalt [single] (2018), Gothic/Dark Metal (D8)
post Dec 6 2018, 14:03:48
Post #1

Правь статус, ####!111
**************
Group: Металариец
Posts: 35,265
Releases: 523
On Forums: 9 years 6 months
Thanks: 27373 time(s)
Russian Federation


(IMG:http://metalarea.org/images/audiocovers/2018_Dec/acov_tid313840_thumb.jpg)

*Artist: Ewigheim
*Album: Vom Mond Gemalt [single]
*Year: 2018
*Genre: Gothic/Dark Metal
*Country: Germany (IMG:http://metalarea.org/forum/style_images/flags/Germany.png)
*Format: mp3@CBR320kbps
*Size: 9MB

Tracklist:
1. Vom Mond Gemalt
******************************
Total playing time: 4:11

Technical info
(IMG:http://metalarea.org/images/spectrogram/2018_Dec/f43ed4a78c5f69c164b64508657afa46.png)
Input File: 01. Vom Mond gemalt.mp3
Channels : 2
Sample Rate : 44100
Precision : 16-bit
Duration : 00:04:11.89 = 11108173 samples = 18891.5 CDDA sectors
File Size : 10.1M
Bit Rate : 322k
Sample Encoding: MPEG audio (layer I, II or III)
Comments :
Title=Vom Mond gemalt
Artist=Ewigheim
Album=Vom Mond gemalt
Tracknumber=1/1
Year=2018
Discnumber=1/1



Register


Thanks:
Go to the top of the page
  Insert nick Quick quote
+Quote Post
 
Start new topic
Replies (1 - 2)
post Dec 6 2018, 15:14:19
Post #2

Правь статус, ####!111
**************
Group: Металариец
Posts: 35,265
Releases: 523
On Forums: 9 years 6 months
Thanks: 27373 time(s)
Russian Federation


@320

Register
Go to the top of the page
  Insert nick Quick quote
+Quote Post
post Dec 7 2018, 05:41:43
Post #3

Правь статус, ####!111
**************
Group: Металариец
Posts: 2,421
Releases: 11
From: Canada
On Forums: 11 years 5 months
Thanks: 1542 time(s)
Canada


Go to the top of the page
  Insert nick Quick quote
+Quote Post

Reply to this topicStart new topic
2 User(s) are reading this topic (2 Guests and 0 Anonymous Users)
0 Members:

 



- Lo-Fi Version Support form
Copyrights and abuse reports form
Time is now: 10th December 2018 - 14:39:56