Welcome Guest ( Log In | Register )

> Releases Upload / Добавление релизов

Добавить релиз тут / Click here to add release
Рекомендованные обменники / Recommended file shares

> Inexistence - Infinite Forms [ep] (2018), Progressive/Technical Death Metal (D5)
post Dec 6 2018, 14:13:50
Post #1

Аннигилятор пивА
Group Icon
Group: V.I.P
Posts: 50,729
Releases: 15810
From: Koenigsberg - TILZIT
On Forums: 12 years 6 months
Thanks: 344808 time(s)
Russian Federation


(IMG:https://metalarea.org/images/audiocovers/2018_Dec/acov_tid313842_thumb.jpg)

*Artist: Inexistence
*Album: Infinite Forms [ep]
*Year: 2018
*Genre: Progressive/Technical Death Metal
*Country: Brazil (IMG:https://metalarea.org/forum/style_images/flags/Brazil.png)
*Format: mp3@CBR320kbps
*Size: 28MB

Tracklist:
01. Recreated Reality
02. Interaction Mechanisms
03. Natural Selection
******************************
Total playing time: 13:14



Extended info
Inexistence is a technical death metal band inspired by bands like Beyond Creation, Obscura, Revocation, Necrophagist, Spawn of Possession, Death, Arsis.

Felipe Jacobsen (Guitarra/Voz)
Lucas Diogo (Baixo)
Vinícius Rodrigues (Bateria)


Technical info
(IMG:https://metalarea.org/images/spectrogram/2018_Dec/52f978f309993d7169bafca7dccf28f1.png)
Input File: 02. Interaction Mechanisms.mp3
Channels : 2
Sample Rate : 44100
Precision : 16-bit
Duration : 00:03:56.14 = 10413642 samples = 17710.3 CDDA sectors
File Size : 9.53M
Bit Rate : 323k
Sample Encoding: MPEG audio (layer I, II or III)
Comments :
Title=Interaction Mechanisms
Artist=Inexistence
Album=Infinite Forms
Tracknumber=2
Year=2018
Discnumber=1



Register


Go to the top of the page
  Insert nick Quick quote
+Quote Post
 
Start new topic
Replies (1 - 1)
post Dec 6 2018, 14:59:27
Post #2

Аннигилятор пивА
Group Icon
Group: V.I.P
Posts: 50,729
Releases: 15810
From: Koenigsberg - TILZIT
On Forums: 12 years 6 months
Thanks: 344808 time(s)
Russian Federation


MIRROR
Register


Thanks:
(1) Ostinato,
Go to the top of the page
  Insert nick Quick quote
+Quote Post

Reply to this topicStart new topic
1 User(s) are reading this topic (1 Guests and 0 Anonymous Users)
0 Members:

 



- Lo-Fi Version Support form
Copyrights and abuse reports form
Time is now: 10th December 2018 - 14:49:03