Welcome Guest ( Log In | Register )

> Releases Upload / Добавление релизов

Добавить релиз тут / Click here to add release
Рекомендованные обменники / Recommended file shares

> Mansion - First Death Of The Lutheran (2018), Occult Doom Metal
post Dec 6 2018, 14:26:01
Post #1

Аннигилятор пивА
Group Icon
Group: V.I.P
Posts: 50,725
Releases: 15804
From: Koenigsberg - TILZIT
On Forums: 12 years 6 months
Thanks: 344803 time(s)
Russian Federation


(IMG:https://metalarea.org/images/audiocovers/2018_Dec/acov_tid313843_thumb.jpg)

*Artist: Mansion
*Album: First Death Of The Lutheran
*Year: 2018
*Genre: Occult Doom Metal
*Country: Finland (IMG:https://metalarea.org/forum/style_images/flags/Finland.png)
*Format: mp3@CBR320kbps
*Size: 99MB

Tracklist:
1. Wretched Hope 07:06
2. Lutheran 07:15
3. The Eternal (Joy Division cover) 07:15
4. 1933 08:39
5. First Death 12:44
******************************
Total playing time: 42:59




Extended info
Immanuel - Bass
Jaakob - Guitars
Veikko-Tapio - Guitars
Matti-Juhani - Organ
Alma - Vocals
Osmo - Vocals
Mikael - Drums, Lyrics (2011-2014), Lyrics (2014-present)
Aatami - Drums (2014-present)



Technical info
(IMG:https://metalarea.org/images/spectrogram/2018_Dec/42b523d5907cbb160c8a23c40c09203b.png)
Input File: 03 The Eternal.mp3
Channels : 2
Sample Rate : 44100
Precision : 16-bit
Duration : 00:07:14.99 = 19183015 samples = 32624.2 CDDA sectors
File Size : 17.6M
Bit Rate : 324k
Sample Encoding: MPEG audio (layer I, II or III)
Comments :
Title=The Eternal
Artist=Mansion
Album=First Death of the Lutheran
Tracknumber=3/5
Year=2018
Genre=Doom Metal, Occult Rock (Female Vocal)
Discnumber=1/1



Register


Go to the top of the page
  Insert nick Quick quote
+Quote Post
 
Start new topic
Replies (1 - 4)
post Dec 6 2018, 14:50:18
Post #2

Аннигилятор пивА
Group Icon
Group: V.I.P
Posts: 50,725
Releases: 15804
From: Koenigsberg - TILZIT
On Forums: 12 years 6 months
Thanks: 344803 time(s)
Russian Federation


(IMG:style_emoticons/default/pray.gif)
MIRROR
Register




Thanks:
(1) Foneg,
Go to the top of the page
  Insert nick Quick quote
+Quote Post
post Dec 6 2018, 17:08:48
Post #3

Правь статус, ####!111
**************
Group: Металариец
Posts: 35,264
Releases: 523
On Forums: 9 years 6 months
Thanks: 27373 time(s)
Russian Federation


Превьюшный трэк вкусный, качаю (IMG:style_emoticons/default/banana.gif)
Go to the top of the page
  Insert nick Quick quote
+Quote Post
post Dec 7 2018, 14:24:44
Post #4

Пять Литров
*****
Group: Металариец
Posts: 443
Releases: 5
From: Ивантеевка, Московская область
On Forums: 10 years 11 months
Thanks: 134 time(s)
Russian Federation


Атмосферный колдовской альбомчик. Одобрямс!
Go to the top of the page
  Insert nick Quick quote
+Quote Post
post Dec 7 2018, 14:31:02
Post #5

Правь статус, ####!111
**************
Group: Металариец
Posts: 35,264
Releases: 523
On Forums: 9 years 6 months
Thanks: 27373 time(s)
Russian Federation


По факту - неплохо, но скушновато да и голос с акцентом вокалистки не оч
Go to the top of the page
  Insert nick Quick quote
+Quote Post

Reply to this topicStart new topic
1 User(s) are reading this topic (1 Guests and 0 Anonymous Users)
0 Members:

 



- Lo-Fi Version Support form
Copyrights and abuse reports form
Time is now: 10th December 2018 - 13:53:53