Welcome Guest ( Log In | Register )

> Releases Upload / Добавление релизов

Добавить релиз тут / Click here to add release
Рекомендованные обменники / Recommended file shares

 
Reply to this topicStart new topic
> Halo Of Miasma - Halo Of Miasma (2018), Black Metal
post Dec 6 2018, 14:37:45
Post #1

Аннигилятор пивА
Group Icon
Group: V.I.P
Posts: 50,729
Releases: 15810
From: Koenigsberg - TILZIT
On Forums: 12 years 6 months
Thanks: 344814 time(s)
Russian Federation


(IMG:https://metalarea.org/images/audiocovers/2018_Dec/acov_tid313844_thumb.jpg)

*Artist: Halo Of Miasma
*Album: Halo Of Miasma
*Year: 2018
*Genre: Black Metal
*Country: Poland (IMG:https://metalarea.org/forum/style_images/flags/Poland.png)
*Format: mp3@CBR320kbps
*Size: 80MB

Tracklist:
1. Spectres Over Dyatlov Pass 03:40
2. Salt Upon Wounds 03:12
3. Volcanic Ashfall 03:11
4. Wolves of Múspellzheimr 06:10
5. Truth Beneath The Glow 03:13
6. Man Of Mayhem 03:50
7. Of Void And Form 06:37
8. Unholy Funeral 04:16
******************************
Total playing time: 34:09



Extended info



Technical info
(IMG:https://metalarea.org/images/spectrogram/2018_Dec/36ad9d868425cd173168be45f0e80e38.png)
Input File: Halo Of Miasma - Halo Of Miasma - 04 Wolves of Múspellzheimr.mp3
Channels : 2
Sample Rate : 44100
Precision : 16-bit
Duration : 00:06:10.72 = 16348928 samples = 27804.3 CDDA sectors
File Size : 14.9M
Bit Rate : 322k
Sample Encoding: MPEG audio (layer I, II or III)
Comments :
Title=Wolves of Múspellzheimr
Artist=Halo Of Miasma
Album=Halo Of Miasma
Tracknumber=4
Year=2018



Register


Go to the top of the page
  Insert nick Quick quote
+Quote Post

Reply to this topicStart new topic
1 User(s) are reading this topic (1 Guests and 0 Anonymous Users)
0 Members:

 



- Lo-Fi Version Support form
Copyrights and abuse reports form
Time is now: 10th December 2018 - 15:01:55