Welcome Guest ( Log In | Register )

> Releases Upload / Добавление релизов

Добавить релиз тут / Click here to add release
Рекомендованные обменники / Recommended file shares

> Fleshreaper - Blue Skies Laced With Pesticide (2018), Thrash/Death Metal
post Dec 6 2018, 14:54:00
Post #1

Правь статус, ####!111
**************
Group: Металариец
Posts: 15,297
Releases: 10446
From: Г.Харьков
On Forums: 6 years 7 months
Thanks: 173150 time(s)
Unknown


(IMG:https://metalarea.org/images/audiocovers/2018_Dec/acov_tid313845_thumb.jpg)

*Artist: Fleshreaper
*Album: Blue Skies Laced With Pesticide
*Year: 2018
*Genre: Thrash/Death Metal
*Country: United States (IMG:https://metalarea.org/forum/style_images/flags/United%20States.png)
*Format: mp3@CBR320kbps
*Size: 76MB

Tracklist:
1. Of Rotten Mind 02:26
2. Face in the Window 04:32
3. Mental Waste 01:39
4. Ghosts of Highway Dead (Thrill Ride) 02:18
5. Lunatics Eye 02:47
6. Soul Divided 01:11
7. The Magicians Grudge 03:22
8. She Worships Death 02:27
9. King of the Whores 01:05
10. Blue Skies Laced with Pesticide 03:03
11. Armies of the Dead 01:20
12. Rotting in the Corner of Hell 01:14
13. Abducted by Shadows 00:56
14. Graveyard Graffiti 02:37
******************************
Total playing time: 30:57




Extended info
Jim Ross lead guitars
See also: Human Enslavement, Human Rejection, Nader Sadek (live), Doomsilla, ex-Feculent Abscess, Bandwhore, ex-Cystic Dysentery, ex-Extremely Rotten, ex-Nakhiel, ex-Necropia
Scott Fagersten Bass (2014-present)
Don "B.B." Queen Guitars (2014-present)
See also: ex-Genocide
Tony Anderson Vocals (2014-present)
See also: Generichrist, Doomsilla, Cemetery Slüt, Skin Tomb
Edwin Webb Guitars (2015-present)
See also: Destined to Ruin, Generichrist, ex-Massacre, Hideous, ex-Contorted, ex-Diabolic, ex-Eulogy
Doug Sylvia Drums (2017-present)
See also: ex-Geneticide, ex-Skeletal Earth, ex-Fear of God



Technical info
(IMG:https://metalarea.org/images/spectrogram/2018_Dec/8888d991e8f60cbc3153007b852bc06e.png)
Input File: 05 Lunatics Eye.mp3
Channels : 2
Sample Rate : 44100
Precision : 16-bit
Duration : 00:02:47.45 = 7384721 samples = 12559 CDDA sectors
File Size : 7.08M
Bit Rate : 338k
Sample Encoding: MPEG audio (layer I, II or III)
Comments :
Title=Lunatics Eye
Artist=Fleshreaper
Album=Blue Skies Laced with Pesticide
Tracknumber=5/14
Year=2018
Genre=Death Metal
Discnumber=1/1



Register


Go to the top of the page
  Insert nick Quick quote
+Quote Post
 
Start new topic
Replies (1 - 3)
post Dec 6 2018, 16:23:24
Post #2

Правь статус, ####!111
**************
Group: Металариец
Posts: 15,297
Releases: 10446
From: Г.Харьков
On Forums: 6 years 7 months
Thanks: 173150 time(s)
Unknown


Cloud Mail 320
Register
Go to the top of the page
  Insert nick Quick quote
+Quote Post
post Dec 6 2018, 19:13:04
Post #3

Два Литра
**
Group: Завсегдатай
Posts: 116
Releases: 0
On Forums: 10 years 8 months
Thanks: 39 time(s)
Russian Federation


В стиль можно смело добавлять punk. В "багаже" группы - сплит с Violation Wound, и стилистически тут все вполне сопоставимо, если вы понимаете, о чем я(IMG:style_emoticons/default/smile1.gif)
А в целом - все весело, задорно и танцевально(IMG:style_emoticons/default/smile1.gif)
А первая песенка - так и просто шЫдевр! (IMG:style_emoticons/default/pray.gif)


Thanks:
(1) DarkHorde,
Go to the top of the page
  Insert nick Quick quote
+Quote Post
post Dec 7 2018, 14:25:11
Post #4

\m/
Group Icon
Group: S-moderation team
Posts: 7,557
Releases: 19
From: Петропавловск-Камчатский
On Forums: 9 years 5 months
Thanks: 6904 time(s)
Russian Federation


rpa, полностью согласен. Отличный заводной музон.
Go to the top of the page
  Insert nick Quick quote
+Quote Post

Reply to this topicStart new topic
2 User(s) are reading this topic (2 Guests and 0 Anonymous Users)
0 Members:

 



- Lo-Fi Version Support form
Copyrights and abuse reports form
Time is now: 10th December 2018 - 14:09:46