Welcome Guest ( Log In | Register )

> Forum rules / Правила раздела

Here go releases which can't go to New releases forums due lack of information, stolen links or incorrect data and just founded in other sites links with minimum info. Reissue of this releases through Add release form with added/corrected data, info and own links highly welcomed.

Сюда уходят релизы, не пропущенные в основные релизные форумы по причинам отсутствия, недостаточности или неверности/некорректности сопровождающей информации, содержащие ссылки, указывающие на файлы, залитые не автором темы, а так же просто найденные где-то ссылки с минимумом информации. Переоформление тем отсюда через форму Добавления релиза с перезаливкой ссылок крайне приветствуется.

> Omnisium - Celestial Filicide [ep] (2018), Melodic Deathcore
post Dec 6 2018, 23:07:00
Post #1

i listen to black metal
**************
Group: Металариец
Posts: 2,359
Releases: 128
From: Москва-Лианозово
On Forums: 12 years 5 months
Thanks: 2050 time(s)
Russian Federation


(IMG:https://metalarea.org/images/audiocovers/2018_Dec/acov_tid313912_thumb.jpg)

*Artist: Omnisium
*Album: Celestial Filicide [ep]
*Year: 2018
*Genre: Melodic Deathcore
*Country: United States (IMG:https://metalarea.org/forum/style_images/flags/United%20States.png)
*Format: mp3@VBR260kbps
*Size: 42MB

Tracklist:
1-Reverie 0:53
2-Illumination 4:29
3-Torn 4:02
4-Denial 4:22
5-Reckoning 5:49
******************************
Total playing time: 19:35

(IMG:https://metalarea.org/images/youtube.png)
(IMG:https://metalarea.org/images/youtube.png)
(IMG:https://metalarea.org/images/youtube.png)

Technical info
(IMG:https://metalarea.org/images/spectrogram/2018_Dec/ee272e3807521d81bd90ae46fa451532.png)
Input File: Omnisium - Illumination.mp3
Channels : 2
Sample Rate : 44100
Precision : 16-bit
Duration : 00:04:29.29 = 11875469 samples = 20196.4 CDDA sectors
File Size : 10.8M
Bit Rate : 320k
Sample Encoding: MPEG audio (layer I, II or III)



Register
Go to the top of the page
  Insert nick Quick quote
+Quote Post
 
Start new topic
Replies (1 - 1)
post Dec 24 2018, 21:34:04
Post #2

Тридцать лет на борту "Тяжёлого" крейсера
**************
Group: Металариец
Posts: 2,039
Releases: 0
From: Питер
On Forums: 11 years 11 months
Thanks: 509 time(s)
Russian Federation


Ничё так, бодрячком, мелодично
Go to the top of the page
  Insert nick Quick quote
+Quote Post

Reply to this topicStart new topic
2 User(s) are reading this topic (2 Guests and 0 Anonymous Users)
0 Members:

 



- Lo-Fi Version Support form
Copyrights and abuse reports form
Time is now: 26th May 2019 - 11:56:49