Welcome Guest ( Log In | Register )

> Forum rules / Правила раздела

Here go releases which can't go to New releases forums due lack of information, stolen links or incorrect data and just founded in other sites links with minimum info. Reissue of this releases through Add release form with added/corrected data, info and own links highly welcomed.

Сюда уходят релизы, не пропущенные в основные релизные форумы по причинам отсутствия, недостаточности или неверности/некорректности сопровождающей информации, содержащие ссылки, указывающие на файлы, залитые не автором темы, а так же просто найденные где-то ссылки с минимумом информации. Переоформление тем отсюда через форму Добавления релиза с перезаливкой ссылок крайне приветствуется.

 
Reply to this topicStart new topic
> Ols - Ols (2016), Dark Folk
post Dec 8 2018, 07:40:26
Post #1

Шесть Литров
******
Group: Металариец
Posts: 519
Releases: 5
From: Ивантеевка, Московская область
On Forums: 11 years 5 months
Thanks: 168 time(s)
Russian Federation


(IMG:http://metalarea.org/images/audiocovers/2018_Dec/acov_tid313990_thumb.jpg)

*Artist: Ols
*Album: Ols
*Year: 2016
*Genre: Dark Folk
*Country: Poland (IMG:http://metalarea.org/forum/style_images/flags/Poland.png)
*Format: mp3@CBR320kbps
*Size: 69MB

Tracklist:
1. O Drzewach 05:51
2. Woda 05:47
3. Chmielna 05:42
4. Kołysanka 05:37
5. Krew Na Mchu 05:05
6. Pożegnalna 06:03
******************************
Total playing time: 34:05



Technical info
(IMG:http://metalarea.org/images/spectrogram/2018_Dec/d9d0ee6b83ad78dbcbaa92c04b255218.png)
Input File: 01 - O Drzewach.mp3
Channels : 2
Sample Rate : 44100
Precision : 16-bit
Duration : 00:05:50.90 = 15474778 samples = 26317.6 CDDA sectors
File Size : 14.1M
Bit Rate : 321k
Sample Encoding: MPEG audio (layer I, II or III)
Comments :
Title=O Drzewach
Artist=Ols
Album=Ols
Tracknumber=01
Year=2016
Genre=Dark Folk/Neofolk



Register


This post has been edited by Borderline1991: Dec 8 2018, 12:21:52
Go to the top of the page
  Insert nick Quick quote
+Quote Post

Reply to this topicStart new topic
2 User(s) are reading this topic (2 Guests and 0 Anonymous Users)
0 Members:

 



- Lo-Fi Version Support form
Copyrights and abuse reports form
Time is now: 26th May 2019 - 12:09:58