Welcome Guest ( Log In | Register )

> И неформату есть предел.

Рэп/хип-хоп/шансон/поп удаляются. Для них есть свои порталы.

> Kingston Wall - III (Tri-Logy) (1994), Psychedelic/Progressive Rock
post Dec 9 2018, 06:11:51
Post #1

Правь статус, ####!111
**************
Group: Металариец
Posts: 2,486
Releases: 35
From: Nakhodka
On Forums: 10 years 1 month
Thanks: 2220 time(s)
Russian Federation


(IMG:http://metalarea.org/images/audiocovers/2018_Dec/acov_tid314036_thumb.jpg)

*Artist: Kingston Wall
*Album: III (Tri-Logy)
*Year: 1994
*Genre: Psychedelic/Progressive Rock
*Country: Finland (IMG:http://metalarea.org/forum/style_images/flags/Finland.png)
*Format: mp3@CBR320kbps
*Size: 163MB

Tracklist:
1. Another Piece Of Cake
2. Welcome To The Mirrorland
3. I'm The King, I'm The Sun
4. The Key: Will
5. Take You To Sweet Harmony
6. Get Rid Of Your Fears
7. When Something Old Dies
8. Alt - Land - Is
9. Party Goes On
10. Stüldt Håjt
11. For All Mankind
12. Time
13. The Real Thing
******************************
Total playing time: 1:07:11

Extended info
Petri Walli - Guitar, Lead Vocal
Jukka Jylli - Bass, Backing Vocals
Sami Kuoppamäki - Drums, Percussion

Третий и последний альбом легендарной финской группы.


Technical info
(IMG:http://metalarea.org/images/spectrogram/2018_Dec/518f62826ee115054c821ae6b29c8333.png)
Input File: 04 The Key- Will .mp3
Channels : 2
Sample Rate : 44100
Precision : 16-bit
Duration : 00:01:07.74 = 2987422 samples = 5080.65 CDDA sectors
File Size : 2.71M
Bit Rate : 320k
Sample Encoding: MPEG audio (layer I, II or III)
Comments :
Title=The Key: Will
Artist=Kingston Wall
Album=III - Tri-Logy
Tracknumber=04
Year=1994
Genre=Progressive Rock



Register


Go to the top of the page
  Insert nick Quick quote
+Quote Post
 
Start new topic
Replies (1 - 1)
post Dec 11 2018, 21:43:01
Post #2

Heavy metal to the world (c)
**************
Group: Металариец
Posts: 3,402
Releases: 1
From: Питер
On Forums: 13 years 4 months
Thanks: 1423 time(s)
Russian Federation


ЦИТАТА(Lucifer @ Dec 9 2018, 08:11:51) *
13. The Real Thing

(IMG:style_emoticons/default/pray.gif)
Go to the top of the page
  Insert nick Quick quote
+Quote Post

Reply to this topicStart new topic
1 User(s) are reading this topic (1 Guests and 0 Anonymous Users)
0 Members:

 



- Lo-Fi Version Support form
Copyrights and abuse reports form
Time is now: 4th July 2020 - 13:50:09