Welcome Guest ( Log In | Register )

> И неформату есть предел.

Рэп/хип-хоп/шансон/поп удаляются. Для них есть свои порталы.

> Kingston Wall - II (1993), Psychedelic/Progressive Rock
post Dec 9 2018, 06:15:50
Post #1

Правь статус, ####!111
**************
Group: Металариец
Posts: 2,486
Releases: 35
From: Nakhodka
On Forums: 10 years 1 month
Thanks: 2220 time(s)
Russian Federation


(IMG:http://metalarea.org/images/audiocovers/2018_Dec/acov_tid314037_thumb.jpg)

*Artist: Kingston Wall
*Album: II
*Year: 1993
*Genre: Psychedelic/Progressive Rock
*Country: Finland (IMG:http://metalarea.org/forum/style_images/flags/Finland.png)
*Format: mp3@CBR320kbps
*Size: 143MB

Tracklist:
1. We Cannot Move
2. Istwan
3. Could It Be So?
4. And It's All Happening
5. Love Tonight
6. Two Of A Kind
7. I Feel Love
8. Shine On Me
9. You
10. Palékastro
******************************
Total playing time: 1:10:10

Extended info
Petri Walli - Guitar, Lead Vocal
Jukka Jylli - Bass, Backing Vocals
Sami Kuoppamäki - Drums, Percussion


Technical info
(IMG:http://metalarea.org/images/spectrogram/2018_Dec/9d4b11ad33e985b9459dfd3c0935e814.png)
Input File: 02 Istwan .mp3
Channels : 2
Sample Rate : 44100
Precision : 16-bit
Duration : 00:04:01.65 = 10656721 samples = 18123.7 CDDA sectors
File Size : 9.67M
Bit Rate : 320k
Sample Encoding: MPEG audio (layer I, II or III)
Comments :
Title=Istwan
Artist=Kingston Wall
Album=II
Tracknumber=02
Year=1993



Register


Thanks:
Go to the top of the page
  Insert nick Quick quote
+Quote Post
 
Start new topic
Replies (1 - 1)
post Dec 11 2018, 21:40:13
Post #2

Heavy metal to the world (c)
**************
Group: Металариец
Posts: 3,402
Releases: 1
From: Питер
On Forums: 13 years 4 months
Thanks: 1423 time(s)
Russian Federation


Кто не слушал, настоятельно рекомендую. Отличный музон


Thanks:
(1) Lucifer,
Go to the top of the page
  Insert nick Quick quote
+Quote Post

Reply to this topicStart new topic
1 User(s) are reading this topic (1 Guests and 0 Anonymous Users)
0 Members:

 



- Lo-Fi Version Support form
Copyrights and abuse reports form
Time is now: 5th July 2020 - 08:03:01