Welcome Guest ( Log In | Register )

> Gloomy Grim - Obscure Metamorphosis [ep] (2018), Symphonic Black Metal
post Dec 9 2018, 16:11:27
Post #1

Аннигилятор пивА
Group Icon
Group: V.I.P
Posts: 52,358
Releases: 16557
From: Koenigsberg - TILZIT
On Forums: 13 years 3 months
Thanks: 362234 time(s)
Russian Federation


(IMG:https://metalarea.org/images/audiocovers/2018_Dec/acov_tid314055_thumb.jpg)

*Artist: Gloomy Grim
*Album: Obscure Metamorphosis [ep]
*Year: 2018
*Genre: Symphonic Black Metal
*Country: Finland (IMG:https://metalarea.org/forum/style_images/flags/Finland.png)
*Format: mp3@CBR320kbps
*Size: 31MB

Tracklist:
1. Crawling Saviour 02:38
2. Stars Above Me 04:05
3. The Lord Of Light 03:08
4. Impressive Physical Sight 03:43
******************************
Total playing time: 13:34




Extended info
Agathon - Vocals, Keyboards (1995-present) See also: Soulgrind, ex-Airdash, ex-Corporal Punishment, ex-Nomicon, ex-Walhalla, ex-Barathrum, ex-Thy Serpent, ex-Hellstorm
Nuklear Tormentörr - Bass (2004-present) See also: Barathrum, Disformed
Micko Hell - Guitars (2016-present) See also: Denigrate, ex-Sargo Fvck, Micko Hell & The Motherfuckers, ex-Dauntless, ex-Rain Paint, ex-Million Dollar Beggars
AstroNuclear Agitator - Drums (2018-present) See also: Astral Corpse
Kim Lappalainen - Guitars (2018-present) See also: Ceaseless Torment, Nihile, ex-Refusal






Technical info
(IMG:https://metalarea.org/images/spectrogram/2018_Dec/890114b85616e6fadc0a001f77f53e97.png)
Input File: 1 - Crawling Saviour.mp3
Channels : 2
Sample Rate : 44100
Precision : 16-bit
Duration : 00:02:38.73 = 6999905 samples = 11904.6 CDDA sectors
File Size : 6.51M
Bit Rate : 328k
Sample Encoding: MPEG audio (layer I, II or III)
Comments :
Title=Crawling Saviour
Artist=Gloomy Grim
Album=Obscure Metamorphosis
Tracknumber=1
Year=2018-18-20
Genre=Рок
Discnumber=1



Register


Go to the top of the page
  Insert nick Quick quote
+Quote Post
 
Start new topic
Replies (1 - 5)
post Dec 9 2018, 16:32:55
Post #2

Аннигилятор пивА
Group Icon
Group: V.I.P
Posts: 52,358
Releases: 16557
From: Koenigsberg - TILZIT
On Forums: 13 years 3 months
Thanks: 362234 time(s)
Russian Federation


MIRROR
Register


Go to the top of the page
  Insert nick Quick quote
+Quote Post
post Dec 9 2018, 17:14:42
Post #3

Инфернальный Данмер
**********
Group: Металариец
Posts: 1,112
Releases: 24
From: Суран, Морровинд
On Forums: 12 years 6 months
Thanks: 3220 time(s)
New Zealand


Очень хорошо, но мало (IMG:style_emoticons/default/9.gif)


Thanks:
(1) nunim,
Go to the top of the page
  Insert nick Quick quote
+Quote Post
post Dec 10 2018, 08:41:30
Post #4

Русь Понад Усе!
**************
Group: Металариец
Posts: 4,208
Releases: 15
From: Украина
On Forums: 12 years 2 weeks
Thanks: 1650 time(s)
Ukraine


ЦИТАТА(Nerevar @ Dec 9 2018, 20:14:42) *
Очень хорошо, но мало (IMG:style_emoticons/default/9.gif)


Согласен!
Go to the top of the page
  Insert nick Quick quote
+Quote Post
post Dec 10 2018, 12:33:45
Post #5

Четыре Литра
****
Group: Металариец
Posts: 354
Releases: 0
On Forums: 1 year 10 months
Thanks: 156 time(s)
Unknown


Отличный миник! Stars Above Me просто волшебная песня (IMG:style_emoticons/default/20.gif)
Go to the top of the page
  Insert nick Quick quote
+Quote Post
post Dec 25 2018, 17:38:39
Post #6

Group: Подсевший
Posts: 47
Releases: 0
On Forums: 12 years 11 months
Thanks: 6 time(s)
Russian Federation


Раньше прям нравились мне! Послухаем!)
Go to the top of the page
  Insert nick Quick quote
+Quote Post

Reply to this topicStart new topic
2 User(s) are reading this topic (2 Guests and 0 Anonymous Users)
0 Members:

 



- Lo-Fi Version Support form
Copyrights and abuse reports form
Time is now: 17th September 2019 - 15:52:49