Welcome Guest ( Log In | Register )

> Dawn Of Winter - Pray For Doom (2018), Epic Doom Metal
post Dec 10 2018, 17:36:17
Post #1

Правь статус, ####!111
**************
Group: Металариец
Posts: 20,313
Releases: 13848
From: Г.Харьков
On Forums: 7 years 8 months
Thanks: 242383 time(s)
Unknown


(IMG:https://metalarea.org/images/audiocovers/2018_Dec/acov_tid314099_thumb.jpg)

*Artist: Dawn Of Winter
*Album: Pray For Doom
*Year: 2018
*Genre: Epic Doom Metal
*Country: Germany (IMG:https://metalarea.org/forum/style_images/flags/Germany.png)
*Format: mp3@CBR320kbps
*Size: 120MB

Tracklist:
1. A Dream Within a Dream 07:08
2. The Thirteenth of November 06:06
3. Woodstock Child 04:29
4. The Sweet Taste of Ruin 06:29
5. Pray for Doom 06:36
6. The Orchestra Bizarre 04:21
7. Paralysed by Sleep 06:19
8. Father Winter (Sacrifice Pt. 3) 10:27
******************************
Total playing time: 51:55




Extended info
Gerrit P. Mutz Guitars (1991-1992), Vocals (1991-present)
See also: Angel of Damnation, Battleroar, Sacred Steel, ex-Tragedy Divine, ex-Cemetery, ex-Variety of Arts, ex-Astral Door, ex-Throne of Isolation
Joachim "Bolle" Schmalzried Bass (1992-present)
Jörg M. Knittel Guitars (1992-present)
See also: My Darkest Hate, ex-Tragedy Divine, ex-Variety of Arts, ex-Sacred Steel
Dennis Schediwy Drums (1993-present)
See also: ex-Throne of Isolation


Technical info
(IMG:https://metalarea.org/images/spectrogram/2018_Dec/bfdc2f7be98412d2e570bbf191540fc8.png)
Input File: 03 Woodstock Child.mp3
Channels : 2
Sample Rate : 44100
Precision : 16-bit
Duration : 00:04:29.10 = 11867398 samples = 20182.6 CDDA sectors
File Size : 10.9M
Bit Rate : 325k
Sample Encoding: MPEG audio (layer I, II or III)
Comments :
Title=Woodstock Child
Artist=Dawn Of Winter
Album=Pray For Doom
Tracknumber=03
Year=2018
Genre=Doom Metal



Register


Go to the top of the page
  Insert nick Quick quote
+Quote Post
 
Start new topic
Replies (1 - 2)
post Dec 10 2018, 20:41:48
Post #2

Правь статус, ####!111
**************
Group: Металариец
Posts: 20,313
Releases: 13848
From: Г.Харьков
On Forums: 7 years 8 months
Thanks: 242383 time(s)
Unknown


Cloud Mail 320
Register

Sampo.ru FLAC 384 mb
Register


Go to the top of the page
  Insert nick Quick quote
+Quote Post
post Dec 10 2018, 20:46:57
Post #3

Три Литра
***
Group: Завсегдатай
Posts: 282
Releases: 0
From: Kyiv
On Forums: 7 years 9 months
Thanks: 110 time(s)
Ukraine


Приятный материал. Спасибо.


Thanks:
Go to the top of the page
  Insert nick Quick quote
+Quote Post

Reply to this topicStart new topic
2 User(s) are reading this topic (2 Guests and 0 Anonymous Users)
0 Members:

 



- Lo-Fi Version Support form
Copyrights and abuse reports form
Time is now: 24th January 2020 - 07:22:25