Welcome Guest ( Log In | Register )

> И неформату есть предел.

Рэп/хип-хоп/шансон/поп удаляются. Для них есть свои порталы.

 
Reply to this topicStart new topic
> Various Artists - Sonic Seducer: Cold Hands Seduction 202 [compilation] (2018), Various Gothic
post Dec 11 2018, 20:26:30
Post #1

Мегаманьяк
***********
Group: Металариец
Posts: 1,716
Releases: 462
On Forums: 12 years 2 months
Thanks: 6599 time(s)
Ireland


(IMG:https://metalarea.org/images/audiocovers/2018_Dec/acov_tid314133_thumb.jpg)

*Artist: Various Artists
*Album: Sonic Seducer: Cold Hands Seduction 202 [compilation]
*Year: 2018
*Genre: Various Gothic
*Country: Many (IMG:https://metalarea.org/forum/style_images/flags/Many.png)
*Format: mp3@CBR320kbps
*Size: 164MB

Tracklist:
01. The Beauty Of Gemina feat. Peter Lenzin - Again (Darknight Mix)
02. Empirion - Drug Music
03. On My Isle - Kiss Me Tonight
04. Peter Heppner - ...Und Ich Tanz' (Drangsal's Schwarzvolk Crossover Mix)
05. Totem Obscura feat. Hubert Kah - Helden (Acylum Mix)
06. AnnA Lux - 7 Fragen
07. Hidden Souls - Deep Emotions
08. October Burns Black - Arrowhead
09. Lost On Me - The Greatest Maze
10. Soulimage - Blind (End Of Green Darkmix)
11. AD:Key - Never Enough (Extended Peace Mix)
12. Zardonic feat. Celldweller - Before The Dawn (Radio Edit)
13. Halo In Reverse - Five To The Wrist
14. Synapscape - No Fright
15. Iszoloscope - Spirit Intrusion
16. Distortion Six - Drap
******************************
Total playing time: 1:13:08

Technical info
(IMG:https://metalarea.org/images/spectrogram/2018_Dec/6ef64b90a366787db4c5d7d0922ce2af.png)
Input File: 02 Drug Music.mp3
Channels : 2
Sample Rate : 44100
Precision : 16-bit
Duration : 00:06:16.76 = 16615204 samples = 28257.1 CDDA sectors
File Size : 15.2M
Bit Rate : 323k
Sample Encoding: MPEG audio (layer I, II or III)
Comments :
Title=Drug Music
Artist=Empirion
Album=Cold Hands Seduction Vol. 202
Tracknumber=02/16
Year=2018
Genre=Electronic



Register


Go to the top of the page
  Insert nick Quick quote
+Quote Post

Reply to this topicStart new topic
1 User(s) are reading this topic (1 Guests and 0 Anonymous Users)
0 Members:

 



- Lo-Fi Version Support form
Copyrights and abuse reports form
Time is now: 5th July 2020 - 09:19:32