Welcome Guest ( Log In | Register )

> Spires - A Parting Gift (2018), Progressive Death Metal
post Dec 12 2018, 08:37:42
Post #1

Правь статус, ####!111
**************
Group: Металариец
Posts: 21,254
Releases: 14534
From: Г.Харьков
On Forums: 7 years 10 months
Thanks: 259072 time(s)
Unknown


(IMG:https://metalarea.org/images/audiocovers/2018_Dec/acov_tid314145_thumb.jpg)

*Artist: Spires
*Album: A Parting Gift
*Year: 2018
*Genre: Progressive Death Metal
*Country: United Kingdom (IMG:https://metalarea.org/forum/style_images/flags/United%20Kingdom.png)
*Format: mp3@CBR320kbps
*Size: 146MB

Tracklist:
1. In Black Ravines 07:24
2. The Court of Clashing Skies 10:44
3. The Seer 11:35
4. A Parting Gift 06:06
5. Seed of Dionysus 10:04
6. Etchings in the Emptiness 17:14
******************************
Total playing time: 1:03:07




Extended info
Paul Sadler - Vocals, lead, rhythm and acoustic guitars, keyboards
Dan White - Lead and rhythm guitars
Alex Jolley - Fretless Bass
Zac Oneil - Drums


Technical info
(IMG:https://metalarea.org/images/spectrogram/2018_Dec/28d3ea9a84c2a49238672413835def47.png)
Input File: 03 - The Seer.mp3
Channels : 2
Sample Rate : 44100
Precision : 16-bit
Duration : 00:11:36.02 = 30694394 samples = 52201.4 CDDA sectors
File Size : 28.1M
Bit Rate : 323k
Sample Encoding: MPEG audio (layer I, II or III)
Comments :
Title=The Seer
Artist=Spires
Album=A Parting Gift
Tracknumber=3
Year=2018



Register


Go to the top of the page
  Insert nick Quick quote
+Quote Post
 
Start new topic
Replies (1 - 7)
post Dec 12 2018, 12:41:58
Post #2

Правь статус, ####!111
**************
Group: Металариец
Posts: 21,254
Releases: 14534
From: Г.Харьков
On Forums: 7 years 10 months
Thanks: 259072 time(s)
Unknown


Cloud Mail 320
Register


Go to the top of the page
  Insert nick Quick quote
+Quote Post
post Dec 12 2018, 14:10:21
Post #3

Don't be negative.
**************
Group: Металариец
Posts: 2,851
Releases: 750
From: Earthmother
On Forums: 9 years 6 months
Thanks: 10054 time(s)
Ukraine


Extreme Progressive Metal, для всех любителей этого стиля - качать в обязательном порядке. Напомнило последний альбом The Ocean только в прогрессивном ключе.


Thanks:
(1) Луч,
Go to the top of the page
  Insert nick Quick quote
+Quote Post
post Dec 12 2018, 14:48:28
Post #4

Шесть Литров
******
Group: Металариец
Posts: 603
Releases: 5
From: Ивантеевка, Московская область
On Forums: 12 years 3 months
Thanks: 206 time(s)
Russian Federation


Ужо не знаю насколько тут Extreme (не разбираюсь в вашем металле). но Seed of Dionysus очень хороша!
Go to the top of the page
  Insert nick Quick quote
+Quote Post
post Dec 12 2018, 15:38:11
Post #5

Осторожно, страдаю тяжёлой музыкальной зависимостью!
**********
Group: Металариец
Posts: 1,015
Releases: 8
From: Санкт-Петербург
On Forums: 13 years 2 weeks
Thanks: 384 time(s)
Russian Federation


Очень напомнило Opeth времен Ghost Reveries и Watershed, прямо духовное продолжение. Пока заходит очень хорошо, буду распробовать.


Thanks:
Go to the top of the page
  Insert nick Quick quote
+Quote Post
post Dec 12 2018, 15:44:01
Post #6

Правь статус, ####!111
**************
Group: Металариец
Posts: 45,731
Releases: 705
On Forums: 10 years 10 months
Thanks: 37713 time(s)
Russian Federation


Так все же на кого равняеца группа - Опята или Окиян? Группы то похожи друг на друга как орангутанг на апельсин.


Thanks:
Go to the top of the page
  Insert nick Quick quote
+Quote Post
post Dec 13 2018, 13:12:01
Post #7

Три Литра
***
Group: Завсегдатай
Posts: 224
Releases: 0
From: Минск
On Forums: 8 years 11 months
Thanks: 139 time(s)
Russian Federation


Кто из них орангутанг а кто апельсин? (IMG:style_emoticons/default/1488.gif)
По сабжу - с Opeth я бы не рискнул параллели проводить - как то легкомысленны, что ли. Подача совершенно иная.
Океан - ну может быть, может быть...
Чувствуется у команды потенциал.


Thanks:
(2) Ghostb, metala,
Go to the top of the page
  Insert nick Quick quote
+Quote Post
post Jan 13 2019, 09:15:18
Post #8

В чистоте и единстве:мысль-слово-дело
**************
Group: Металариец
Posts: 2,411
Releases: 9
From: Киев
On Forums: 12 years 8 months
Thanks: 1408 time(s)
Ukraine


Не прог дез. а так хорошо зашло.
Go to the top of the page
  Insert nick Quick quote
+Quote Post

Reply to this topicStart new topic
2 User(s) are reading this topic (2 Guests and 0 Anonymous Users)
0 Members:

 



- Lo-Fi Version Support form
Copyrights and abuse reports form
Time is now: 3rd April 2020 - 05:32:54