Welcome Guest ( Log In | Register )

> Forum rules / Правила раздела

Here go releases which can't go to New releases forums due lack of information, stolen links or incorrect data and just founded in other sites links with minimum info. Reissue of this releases through Add release form with added/corrected data, info and own links highly welcomed.

Сюда уходят релизы, не пропущенные в основные релизные форумы по причинам отсутствия, недостаточности или неверности/некорректности сопровождающей информации, содержащие ссылки, указывающие на файлы, залитые не автором темы, а так же просто найденные где-то ссылки с минимумом информации. Переоформление тем отсюда через форму Добавления релиза с перезаливкой ссылок крайне приветствуется.

 
Reply to this topicStart new topic
> Moonspell & Opus Diabolicum - Soombra [bootleg] (2010), Dark Metal/Cello Metal/Acoustic
post Dec 12 2018, 20:31:55
Post #1

Девять Литров
*********
Group: Металариец
Posts: 928
Releases: 52
On Forums: 5 years 3 months
Thanks: 1574 time(s)
Unknown


(IMG:http://metalarea.org/images/audiocovers/2018_Dec/acov_tid314167_thumb.jpg)

*Artist: Moonspell & Opus Diabolicum
*Album: Soombra [bootleg]
*Year: 2010
*Genre: Dark Metal/Cello Metal/Acoustic
*Country: Portugal (IMG:http://metalarea.org/forum/style_images/flags/Portugal.png)
*Format: mp3@CBR192kbps
*Size: 67MB

Tracklist:
01. Opus Diabolicum - Finisterra (Cinema Sao Jorge, 31.10.2010) 04:09
02. Opus Diabolicum - Nocturna (Cinema Sao Jorge, 31.10.2010) 03:34
03. Moonspell - Handmade God (Cinema Sao Jorge, 31.10.2010) 04:41
04. Moonspell - Southern Deathstyle (Cinema Sao Jorge, 31.10.2010) 04:05
05. Moonspell - Opium (Hard Rock Cafe Lisboa, 15.09.2010) 03:31
06. Moonspell - Wolfshade (Hard Rock Cafe Lisboa, 15.09.2010) 03:55
07. Moonspell - Opium (Radio Antena 3) 03:23
08. Moonspell - Wolfshade (MTV Halloween) 04:00
09. Moonspell - Opium (MTV Halloween) 02:56
10. Moonspell - Disappear Here (MTV Halloween) 05:04
11. Moonspell - Magdalene (MTV Halloween) 05:49
12. Moonspell - Wolfshade (Cinema Sao Jorge, 31.10.2010) 03:50
******************************
Total playing time: 48:57

Technical info
(IMG:http://metalarea.org/images/spectrogram/2018_Dec/5a7484fafca8951d9bd483786e0a0ca5.png)
Input File: 07 - Moonspell - Opium (Radio Antena 3).mp3
Channels : 2
Sample Rate : 44100
Precision : 16-bit
Duration : 00:03:23.37 = 8968793 samples = 15253 CDDA sectors
File Size : 4.88M
Bit Rate : 192k
Sample Encoding: MPEG audio (layer I, II or III)
Comments :
Title=Opium (Radio Antena 3)
Artist=Moonspell
Album=Sombra (Signal Version)
Tracknumber=07
Year=2010
Genre=Metal



Register


Go to the top of the page
  Insert nick Quick quote
+Quote Post

Reply to this topicStart new topic
2 User(s) are reading this topic (2 Guests and 0 Anonymous Users)
0 Members:

 



- Lo-Fi Version Support form
Copyrights and abuse reports form
Time is now: 20th January 2019 - 01:51:05