Welcome Guest ( Log In | Register )

> Forum rules / Правила раздела

Here go releases which can't go to New releases forums due lack of information, stolen links or incorrect data and just founded in other sites links with minimum info. Reissue of this releases through Add release form with added/corrected data, info and own links highly welcomed.

Сюда уходят релизы, не пропущенные в основные релизные форумы по причинам отсутствия, недостаточности или неверности/некорректности сопровождающей информации, содержащие ссылки, указывающие на файлы, залитые не автором темы, а так же просто найденные где-то ссылки с минимумом информации. Переоформление тем отсюда через форму Добавления релиза с перезаливкой ссылок крайне приветствуется.

> Malevolent Creation - Decimated [single] (2018), Death Metal (D)
post Dec 13 2018, 11:58:23
Post #1

Правь статус, ####!111
**************
Group: Металариец
Posts: 36,460
Releases: 537
On Forums: 9 years 7 months
Thanks: 28212 time(s)
Russian Federation


(IMG:http://metalarea.org/images/audiocovers/2018_Dec/acov_tid314200_thumb.jpg)

*Artist: Malevolent Creation
*Album: Decimated [single]
*Year: 2018
*Genre: Death Metal
*Country: United States (IMG:http://metalarea.org/forum/style_images/flags/United%20States.png)
*Format: mp3@CBR320kbps
*Size: 10MB

Tracklist:
1. Decimated
******************************
Total playing time: 4:33

Technical info
(IMG:http://metalarea.org/images/spectrogram/2018_Dec/9ab5ada5de1115286f1fdad16a765a19.png)
Input File: 01. Decimated.mp3
Channels : 2
Sample Rate : 44100
Precision : 16-bit
Duration : 00:04:33.52 = 12062100 samples = 20513.8 CDDA sectors
File Size : 11.4M
Bit Rate : 333k
Sample Encoding: MPEG audio (layer I, II or III)
Comments :
Title=Decimated
Artist=Malevolent Creation
Album=Decimated
Tracknumber=1/1
Year=2018
Discnumber=1/1



Register


Go to the top of the page
  Insert nick Quick quote
+Quote Post
 
Start new topic
Replies (1 - 2)
post Dec 13 2018, 12:15:06
Post #2

Правь статус, ####!111
**************
Group: Металариец
Posts: 36,460
Releases: 537
On Forums: 9 years 7 months
Thanks: 28212 time(s)
Russian Federation


@320

Register


Thanks:
(1) Reverend,
Go to the top of the page
  Insert nick Quick quote
+Quote Post
post Dec 14 2018, 15:02:08
Post #3

Азъ есн Хаос
**********
Group: Металариец
Posts: 1,418
Releases: 164
From: Россия Москва
On Forums: 12 years 5 days
Thanks: 1622 time(s)
Russian Federation


Я так понимаю это сам Малеволентыч (IMG:style_emoticons/default/smile1.gif) угарный трекец, дядьки давят злятся (IMG:style_emoticons/default/smile1.gif) и альбом я смотрю в январе.
Go to the top of the page
  Insert nick Quick quote
+Quote Post

Reply to this topicStart new topic
2 User(s) are reading this topic (2 Guests and 0 Anonymous Users)
0 Members:

 



- Lo-Fi Version Support form
Copyrights and abuse reports form
Time is now: 20th January 2019 - 02:28:30