Welcome Guest ( Log In | Register )

> Forum rules / Правила раздела

Here go releases which can't go to New releases forums due lack of information, stolen links or incorrect data and just founded in other sites links with minimum info. Reissue of this releases through Add release form with added/corrected data, info and own links highly welcomed.

Сюда уходят релизы, не пропущенные в основные релизные форумы по причинам отсутствия, недостаточности или неверности/некорректности сопровождающей информации, содержащие ссылки, указывающие на файлы, залитые не автором темы, а так же просто найденные где-то ссылки с минимумом информации. Переоформление тем отсюда через форму Добавления релиза с перезаливкой ссылок крайне приветствуется.

 
Reply to this topicStart new topic
> A Pale Horse Named Death - Vultures [single] (2018), Gothic/Doom Metal
post Dec 13 2018, 12:16:30
Post #1

Правь статус, ####!111
**************
Group: Металариец
Posts: 36,460
Releases: 537
On Forums: 9 years 7 months
Thanks: 28212 time(s)
Russian Federation


(IMG:http://metalarea.org/images/audiocovers/2018_Dec/acov_tid314201_thumb.jpg)

*Artist: A Pale Horse Named Death
*Album: Vultures [single]
*Year: 2018
*Genre: Gothic/Doom Metal
*Country: United States (IMG:http://metalarea.org/forum/style_images/flags/United%20States.png)
*Format: mp3@CBR320kbps
*Size: 14MB

Tracklist:
1. Vultures
******************************
Total playing time: 6:08

Technical info
(IMG:http://metalarea.org/images/spectrogram/2018_Dec/90f44c1fcf11a5823345d990c9a9405d.png)
Input File: 01. Vultures.mp3
Channels : 2
Sample Rate : 44100
Precision : 16-bit
Duration : 00:06:08.69 = 16259053 samples = 27651.5 CDDA sectors
File Size : 15.0M
Bit Rate : 325k
Sample Encoding: MPEG audio (layer I, II or III)
Comments :
Title=Vultures
Artist=A Pale Horse Named Death
Album=Vultures
Tracknumber=1/1
Year=2018
Discnumber=1/1



Register


Go to the top of the page
  Insert nick Quick quote
+Quote Post

Reply to this topicStart new topic
1 User(s) are reading this topic (1 Guests and 0 Anonymous Users)
0 Members:

 



- Lo-Fi Version Support form
Copyrights and abuse reports form
Time is now: 20th January 2019 - 08:45:05