Welcome Guest ( Log In | Register )

> Forum rules / Правила раздела

Here go releases which can't go to New releases forums due lack of information, stolen links or incorrect data and just founded in other sites links with minimum info. Reissue of this releases through Add release form with added/corrected data, info and own links highly welcomed.

Сюда уходят релизы, не пропущенные в основные релизные форумы по причинам отсутствия, недостаточности или неверности/некорректности сопровождающей информации, содержащие ссылки, указывающие на файлы, залитые не автором темы, а так же просто найденные где-то ссылки с минимумом информации. Переоформление тем отсюда через форму Добавления релиза с перезаливкой ссылок крайне приветствуется.

> Trollfest - Kjettaren Mot Strømmen [single] (2018), Folk Metal (D)
post Dec 13 2018, 13:37:19
Post #1

Правь статус, ####!111
**************
Group: Металариец
Posts: 38,433
Releases: 555
On Forums: 9 years 9 months
Thanks: 29299 time(s)
Russian Federation


(IMG:http://metalarea.org/images/audiocovers/2018_Dec/acov_tid314214_thumb.jpg)

*Artist: Trollfest
*Album: Kjettaren Mot Strømmen [single]
*Year: 2018
*Genre: Folk Metal
*Country: Norway (IMG:http://metalarea.org/forum/style_images/flags/Norway.png)
*Format: mp3@CBR320kbps
*Size: 9MB

Tracklist:
1. Kjettaren Mot Strømmen
******************************
Total playing time: 3:51

Technical info
(IMG:http://metalarea.org/images/spectrogram/2018_Dec/842b27defa4631ccc6c7036e9682e54f.png)
Input File: 01. Kjettaren mot strømmen.mp3
Channels : 2
Sample Rate : 44100
Precision : 16-bit
Duration : 00:03:51.38 = 10203814 samples = 17353.4 CDDA sectors
File Size : 9.62M
Bit Rate : 332k
Sample Encoding: MPEG audio (layer I, II or III)
Comments :
Title=Kjettaren mot strømmen
Artist=TrollfesT
Album=Kjettaren mot strømmen
Tracknumber=1/1
Year=2018
Discnumber=1/1



Register


Go to the top of the page
  Insert nick Quick quote
+Quote Post
 
Start new topic
Replies (1 - 3)
post Dec 13 2018, 15:56:30
Post #2

Правь статус, ####!111
**************
Group: Металариец
Posts: 38,433
Releases: 555
On Forums: 9 years 9 months
Thanks: 29299 time(s)
Russian Federation


@320

Register


Thanks:
(1) Raw1488,
Go to the top of the page
  Insert nick Quick quote
+Quote Post
post Dec 16 2018, 12:04:05
Post #3

Время Мары
**************
Group: Металариец
Posts: 3,019
Releases: 394
From: Харьков
On Forums: 9 years 9 months
Thanks: 7591 time(s)
Ukraine




Thanks:
Go to the top of the page
  Insert nick Quick quote
+Quote Post
post Dec 16 2018, 12:22:47
Post #4

железный нечеловек
**********
Group: Металариец
Posts: 1,126
Releases: 3
From: Уфа
On Forums: 9 years 10 months
Thanks: 373 time(s)
Russian Federation


Шикарный клип!
Go to the top of the page
  Insert nick Quick quote
+Quote Post

Reply to this topicStart new topic
1 User(s) are reading this topic (1 Guests and 0 Anonymous Users)
0 Members:

 



- Lo-Fi Version Support form
Copyrights and abuse reports form
Time is now: 20th March 2019 - 10:33:43