Welcome Guest ( Log In | Register )

> Frostbitt - Solbrent (2018), Experimental/Progressive/Math Metal
post Dec 13 2018, 14:48:38
Post #1

Правь статус, ####!111
**************
Group: Металариец
Posts: 46,459
Releases: 717
On Forums: 10 years 11 months
Thanks: 38976 time(s)
Russian Federation


(IMG:http://metalarea.org/images/audiocovers/2018_Dec/acov_tid314217_thumb.jpg)

*Artist: Frostbitt
*Album: Solbrent
*Year: 2018
*Genre: Experimental/Progressive/Math Metal
*Country: Norway (IMG:http://metalarea.org/forum/style_images/flags/Norway.png)
*Format: mp3@CBR320kbps
*Size: 118MB

Tracklist:
1. Drought
2. Sunburn
3. Magma
4. Mirage
5. Erythema
6. Sunlight
7. Inferno
8. Phoenix
9. Supernova
10. Black Hole
11. Ashes (feat. Aleksander Løe Myrling)
12. The End
******************************
Total playing time: 49:14

Technical info
(IMG:http://metalarea.org/images/spectrogram/2018_Dec/20a0430fb38a3f7858a512c37f55b6ca.png)
Input File: 03. Magma.mp3
Channels : 2
Sample Rate : 44100
Precision : 16-bit
Duration : 00:04:34.30 = 12096630 samples = 20572.5 CDDA sectors
File Size : 11.4M
Bit Rate : 333k
Sample Encoding: MPEG audio (layer I, II or III)
Comments :
Title=Magma
Artist=Frostbitt
Album=Solbrent
Tracknumber=3/12
Year=2018
Discnumber=1/1



Register


Go to the top of the page
  Insert nick Quick quote
+Quote Post
 
Start new topic
Replies (1 - 2)
post Dec 14 2018, 08:22:07
Post #2

Правь статус, ####!111
**************
Group: Металариец
Posts: 2,459
Releases: 11
From: Canada
On Forums: 12 years 11 months
Thanks: 1639 time(s)
Canada




Thanks:
Go to the top of the page
  Insert nick Quick quote
+Quote Post
post Dec 14 2018, 10:20:23
Post #3

Правь статус, ####!111
**************
Group: Металариец
Posts: 46,459
Releases: 717
On Forums: 10 years 11 months
Thanks: 38976 time(s)
Russian Federation


@320

Register


Thanks:
(1) Ostinato,
Go to the top of the page
  Insert nick Quick quote
+Quote Post

Reply to this topicStart new topic
2 User(s) are reading this topic (2 Guests and 0 Anonymous Users)
0 Members:

 



- Lo-Fi Version Support form
Copyrights and abuse reports form
Time is now: 30th May 2020 - 21:49:30