Welcome Guest ( Log In | Register )

> Forum rules / Правила раздела

Here go releases which can't go to New releases forums due lack of information, stolen links or incorrect data and just founded in other sites links with minimum info. Reissue of this releases through Add release form with added/corrected data, info and own links highly welcomed.

Сюда уходят релизы, не пропущенные в основные релизные форумы по причинам отсутствия, недостаточности или неверности/некорректности сопровождающей информации, содержащие ссылки, указывающие на файлы, залитые не автором темы, а так же просто найденные где-то ссылки с минимумом информации. Переоформление тем отсюда через форму Добавления релиза с перезаливкой ссылок крайне приветствуется.

> Wotan Wahnwitz - Gegen Den Strom (1999), Punk
post Dec 13 2018, 20:56:11
Post #1

Три Литра
***
Group: Завсегдатай
Posts: 248
Releases: 16
On Forums: 5 years 4 months
Thanks: 579 time(s)
Iceland


(IMG:https://metalarea.org/images/audiocovers/2018_Dec/acov_tid314223_thumb.jpg)

*Artist: Wotan Wahnwitz
*Album: Gegen Den Strom
*Year: 1999
*Genre: Punk
*Country: Russian Federation (IMG:https://metalarea.org/forum/style_images/flags/Russian%20Federation.png)
*Format: mp3@CBR192kbps
*Size: 75MB

Tracklist:
01 - Alles grau, alles schlecht
02 - Bullenlied
03 - Bundeswehr
04 - Ich glaube nicht mehr daran
05 - Bis zum bitteren Ende
06 - No Future
07 - Asozial
08 - Katjuscha
09 - Tupac Amaru
10 - Deutscher Polizist
11 - Anarchy
12 - Dona, Dona
13 - Industria Smerti
14 - Hooray To The I.R.A.
15 - Siegerjustiz
16 - Lied der Punker
17 - Einheitsfrontlied
18 - Lied für einen Freund
19 - Paradise For Sale
20 - Blowin In The Wind
21 - CDU
22 - Laura Kauppi
******************************
Total playing time: 54:16

Extended info
Discogs and so on say that they´re from Germany, but as you can read from the included booklet they´re from Moskau.


Technical info
(IMG:https://metalarea.org/images/spectrogram/2018_Dec/478a10b17c0c52ea9723b6ca4c04af5c.png)
Input File: 01 - Alles grau, alles schlecht.mp3
Channels : 2
Sample Rate : 44100
Precision : 16-bit
Duration : 00:02:56.03 = 7763099 samples = 13202.5 CDDA sectors
File Size : 4.23M
Bit Rate : 192k
Sample Encoding: MPEG audio (layer I, II or III)
Comments :
Title=Alles grau, alles schlecht
Artist=Wotan Wahnwitz
Album=Gegen den Strom
Year=1999



Register


Thanks:
Go to the top of the page
  Insert nick Quick quote
+Quote Post
 
Start new topic
Replies (1 - 1)
post Dec 14 2018, 03:15:13
Post #2

\m/
Group Icon
Group: S-moderation team
Posts: 7,589
Releases: 19
From: Петропавловск-Камчатский
On Forums: 9 years 7 months
Thanks: 6954 time(s)
Russian Federation



 ! 

Rules 2. 3. c)
 
Go to the top of the page
  Insert nick Quick quote
+Quote Post

Reply to this topicStart new topic
1 User(s) are reading this topic (1 Guests and 0 Anonymous Users)
0 Members:

 



- Lo-Fi Version Support form
Copyrights and abuse reports form
Time is now: 20th January 2019 - 07:41:45