Welcome Guest ( Log In | Register )

> Forum rules / Правила раздела

Here go releases which can't go to New releases forums due lack of information, stolen links or incorrect data and just founded in other sites links with minimum info. Reissue of this releases through Add release form with added/corrected data, info and own links highly welcomed.

Сюда уходят релизы, не пропущенные в основные релизные форумы по причинам отсутствия, недостаточности или неверности/некорректности сопровождающей информации, содержащие ссылки, указывающие на файлы, залитые не автором темы, а так же просто найденные где-то ссылки с минимумом информации. Переоформление тем отсюда через форму Добавления релиза с перезаливкой ссылок крайне приветствуется.

> Ad Nauseam - Dein Letztes Geleit (1997), Punk
post Dec 13 2018, 21:24:57
Post #1

Три Литра
***
Group: Завсегдатай
Posts: 261
Releases: 16
On Forums: 5 years 6 months
Thanks: 590 time(s)
Iceland


(IMG:https://metalarea.org/images/audiocovers/2018_Dec/acov_tid314225_thumb.gif)

*Artist: Ad Nauseam
*Album: Dein Letztes Geleit
*Year: 1997
*Genre: Punk
*Country: Germany (IMG:https://metalarea.org/forum/style_images/flags/Germany.png)
*Format: mp3@CBR256kbps
*Size: 80MB

Tracklist:
1 - Dein letztes Geleit
2 - Warum?
3 - Tag & Nacht
4 - Es kommt der Tag
5 - Gesellschaft
6 - Die Welt ist grün
7 - Pogofraktion
8 - Nur Sex
9 - Fuck You
10 - Pamela Anderson
11 - Medien Und Realität
12 - Amoklauf
13 - Abgenuffelte Zapfwelle
14 - Anarchie
15 - Pornostar
16 - Religion
17 - Demokratie
18 - Vadder Alkohol
******************************
Total playing time: 44:24

(IMG:https://metalarea.org/images/youtube.png)

Technical info
(IMG:https://metalarea.org/images/spectrogram/2018_Dec/d7d52b5b16d33da9bdcbc5f9790ae6e3.png)
Input File: Ad Nauseam - Abgenuffelte Zapfwelle.mp3
Channels : 2
Sample Rate : 44100
Precision : 16-bit
Duration : 00:02:14.83 = 5946179 samples = 10112.5 CDDA sectors
File Size : 4.36M
Bit Rate : 258k
Sample Encoding: MPEG audio (layer I, II or III)
Comments :
Title=Abgenuffelte Zapfwelle
Artist=Ad Nauseam
Album=Dein letztes Geleit
Tracknumber=13
Year=1996
Genre=Deutschpunk



Register
Go to the top of the page
  Insert nick Quick quote
+Quote Post
 
Start new topic
Replies (1 - 1)
post Dec 14 2018, 03:15:16
Post #2

\m/
Group Icon
Group: S-moderation team
Posts: 7,619
Releases: 19
From: Петропавловск-Камчатский
On Forums: 9 years 9 months
Thanks: 7005 time(s)
Russian Federation



 ! 

Rules 2. 3. c)
 
Go to the top of the page
  Insert nick Quick quote
+Quote Post

Reply to this topicStart new topic
1 User(s) are reading this topic (1 Guests and 0 Anonymous Users)
0 Members:

 



- Lo-Fi Version Support form
Copyrights and abuse reports form
Time is now: 20th March 2019 - 10:10:17