Welcome Guest ( Log In | Register )

> Forum rules / Правила раздела

Here go releases which can't go to New releases forums due lack of information, stolen links or incorrect data and just founded in other sites links with minimum info. Reissue of this releases through Add release form with added/corrected data, info and own links highly welcomed.

Сюда уходят релизы, не пропущенные в основные релизные форумы по причинам отсутствия, недостаточности или неверности/некорректности сопровождающей информации, содержащие ссылки, указывающие на файлы, залитые не автором темы, а так же просто найденные где-то ссылки с минимумом информации. Переоформление тем отсюда через форму Добавления релиза с перезаливкой ссылок крайне приветствуется.

> Adam Angst - Neintology (2018), Punk
post Dec 13 2018, 21:36:08
Post #1

Три Литра
***
Group: Завсегдатай
Posts: 248
Releases: 16
On Forums: 5 years 4 months
Thanks: 579 time(s)
Iceland


(IMG:https://metalarea.org/images/audiocovers/2018_Dec/acov_tid314226_thumb.jpg)

*Artist: Adam Angst
*Album: Neintology
*Year: 2018
*Genre: Punk
*Country: Germany (IMG:https://metalarea.org/forum/style_images/flags/Germany.png)
*Format: mp3@CBR320kbps
*Size: 76MB

Tracklist:
1 Der Beginn von etwas ganz großem
2 - Punk
3 - Alexa
4 - Blase aus Beton
5 - Alle sprechen deutsch
6 - Damit ich schlafen kann
7 - Kriegsgebiet
8 - Immer noch
9 - Alphatier
10 - D.I.N.N.
11 - Physik
******************************
Total playing time: 32:09


(IMG:https://metalarea.org/images/youtube.png)
(IMG:https://metalarea.org/images/youtube.png)

Technical info
(IMG:https://metalarea.org/images/spectrogram/2018_Dec/019dd31ab53b0623c9fe0ecdf2516e65.png)
Input File: 01 - Der Beginn von etwas ganz großem.mp3
Channels : 2
Sample Rate : 44100
Precision : 16-bit
Duration : 00:01:20.67 = 3557679 samples = 6050.47 CDDA sectors
File Size : 3.57M
Bit Rate : 354k
Sample Encoding: MPEG audio (layer I, II or III)
Comments :
Title=Der Beginn von etwas ganz großem
Artist=Adam Angst
Album=Neintology
Year=2018



Register
Go to the top of the page
  Insert nick Quick quote
+Quote Post
 
Start new topic
Replies (1 - 4)
post Dec 14 2018, 03:15:19
Post #2

\m/
Group Icon
Group: S-moderation team
Posts: 7,589
Releases: 19
From: Петропавловск-Камчатский
On Forums: 9 years 7 months
Thanks: 6954 time(s)
Russian Federation



 ! 

Rules 2. 3. c)
 
Go to the top of the page
  Insert nick Quick quote
+Quote Post
post Dec 14 2018, 10:52:32
Post #3

Три Литра
***
Group: Завсегдатай
Posts: 248
Releases: 16
On Forums: 5 years 4 months
Thanks: 579 time(s)
Iceland


QUOTE(DarkHorde @ Dec 14 2018, 03:15:19) *


That may be a point, but i`m going to upload many albums the next days and they are poorly listed in the net. That means i have to write many by myself and i don`t have that much time and patience. But you could be helpful and correct the mistakes i possibly have done.
Otherwise i don`t really mind, since my goal is to archive and backup. If you don`t wanna have it, then do whatever you want.
Go to the top of the page
  Insert nick Quick quote
+Quote Post
post Dec 14 2018, 12:38:50
Post #4

\m/
Group Icon
Group: S-moderation team
Posts: 7,589
Releases: 19
From: Петропавловск-Камчатский
On Forums: 9 years 7 months
Thanks: 6954 time(s)
Russian Federation


ЦИТАТА(Kvlt @ 14th December 2018 - 21:52:32) *
That may be a point, but i`m going to upload many albums the next days and they are poorly listed in the net. That means i have to write many by myself and i don`t have that much time and patience. But you could be helpful and correct the mistakes i possibly have done.
Otherwise i don`t really mind, since my goal is to archive and backup. If you don`t wanna have it, then do whatever you want.

Чего тут сложного сделать трэклист правильным? То есть так:
Треклист:
1. Der Beginn von etwas ganz großem
2. Punk
3. Alexa
4. Blase aus Beton
5. Alle sprechen deutsch
6. Damit ich schlafen kann
7. Kriegsgebiet
8. Immer noch
9. Alphatier
10. D.I.N.N.
11. Physik
******************************
Полное время альбома: 32:09
Go to the top of the page
  Insert nick Quick quote
+Quote Post
post Dec 14 2018, 17:07:51
Post #5

Три Литра
***
Group: Завсегдатай
Posts: 248
Releases: 16
On Forums: 5 years 4 months
Thanks: 579 time(s)
Iceland


QUOTE(DarkHorde @ Dec 14 2018, 12:38:50) *
Чего тут сложного сделать трэклист правильным?


If there is a tracklist okay. But Wotan Wahnwitz as example, i had a tracklist with A1, A2 etc and B1, B2 etc. If so i have 2 choices, copy+paste that one and correct everything or copy+paste from my MP3`s. Regardless which one, both can be more work as wanted and i planned to upload 100+ albums. Do you have any idea how long it would take to post this all here that way? Toooo long (for me).

So sorry if there are and will be some failures / mistakes, i`ll try my best. But cannot guarantee it and i`m honest, i don`t have a problem if it lands in the "find" section. At least it`s somewhere in the net and can be found (if wanted).
Go to the top of the page
  Insert nick Quick quote
+Quote Post

Reply to this topicStart new topic
1 User(s) are reading this topic (1 Guests and 0 Anonymous Users)
0 Members:

 



- Lo-Fi Version Support form
Copyrights and abuse reports form
Time is now: 20th January 2019 - 02:46:21