Welcome Guest ( Log In | Register )

> Fleshless - Doomed (2018), Death Metal
post Dec 15 2018, 12:44:23
Post #1

Аннигилятор пивА
Group Icon
Group: V.I.P
Posts: 52,358
Releases: 16557
From: Koenigsberg - TILZIT
On Forums: 13 years 3 months
Thanks: 362219 time(s)
Russian Federation


(IMG:https://metalarea.org/images/audiocovers/2018_Dec/acov_tid314294_thumb.jpg)

*Artist: Fleshless
*Album: Doomed
*Year: 2018
*Genre: Death Metal
*Country: Czech Republic (IMG:https://metalarea.org/forum/style_images/flags/Czech%20Republic.png)
*Format: mp3@CBR320kbps
*Size: 76MB

Tracklist:
01. Intro
02. 4th Dominion
03. Human Debris
04. A Bleeding Sculpture
05. Expelled
06. Noise 5
07. Ninety-Seven Pieces
08. Distorted Eulogy
09. Castrate
10. Parasites Fodder
11. Outro
******************************
Total playing time: 31:49




Extended info
Vitys - Drums (ex-Mortura)
Michal Filipi - Guitars, Bass (1993-present) See also: ex-Lykathea Aflame
Vladimir Prokoš - Vocals (1993-present) See also: ex-Zvrator
Luděk Huzán - Guitars (1994-present) See also: ex-Zvrator


Technical info
(IMG:https://metalarea.org/images/spectrogram/2018_Dec/e0e3529f6de3affdc4416e8157e113c7.png)
Input File: 04 A Bleeding Sculpture.mp3
Channels : 2
Sample Rate : 44100
Precision : 16-bit
Duration : 00:03:07.31 = 8260415 samples = 14048.3 CDDA sectors
File Size : 7.79M
Bit Rate : 333k
Sample Encoding: MPEG audio (layer I, II or III)
Comments :
Title=A Bleeding Sculpture
Artist=Fleshless
Album=Doomed
Tracknumber=4
Year=2018
Genre=Brutal Death Metal



Register


Go to the top of the page
  Insert nick Quick quote
+Quote Post
 
Start new topic
Replies (1 - 5)
post Dec 15 2018, 13:44:26
Post #2

Аннигилятор пивА
Group Icon
Group: V.I.P
Posts: 52,358
Releases: 16557
From: Koenigsberg - TILZIT
On Forums: 13 years 3 months
Thanks: 362219 time(s)
Russian Federation


MIRROR
Register


Go to the top of the page
  Insert nick Quick quote
+Quote Post
post Dec 15 2018, 19:23:06
Post #3

ME[ta]LLOMAN
**************
Group: Металариец
Posts: 4,916
Releases: 3
From: Avdeyevka
On Forums: 13 years 5 months
Thanks: 1859 time(s)
Honduras


фкусинятинко!! (IMG:style_emoticons/default/banana.gif) (IMG:style_emoticons/default/banana.gif) (IMG:style_emoticons/default/banana.gif)


Thanks:
(1) DarkHorde,
Go to the top of the page
  Insert nick Quick quote
+Quote Post
post Dec 16 2018, 22:12:26
Post #4

MDM-Thrash Metal
**************
Group: Металариец
Posts: 8,667
Releases: 594
From: Одесса
On Forums: 12 years 1 month
Thanks: 17260 time(s)
Ukraine


Поддерживаю, очень приятный релиз во всех отношениях!!!
Бронебойно и мощно. Качественно и добротно выполненная дезяра.


Go to the top of the page
  Insert nick Quick quote
+Quote Post
post Dec 20 2018, 18:54:42
Post #5

кручу наждак
**************
Group: Металариец
Posts: 4,031
Releases: 97
From: Самара
On Forums: 9 years 4 months
Thanks: 3063 time(s)
Russian Federation


Зря они первым треком поставили какую-то стльно-модно-молодежную шнягу. Чуть было не вырубил нахрен. Под конец вроде раскочегарились.
Go to the top of the page
  Insert nick Quick quote
+Quote Post
post Dec 26 2018, 08:09:23
Post #6

Это просто место… где все подошло к концу.
**************
Group: Металариец
Posts: 5,591
Releases: 0
From: Страны Мамонтов
On Forums: 12 years 6 months
Thanks: 1980 time(s)
Antarctica


ЦИТАТА(Andrew @ Dec 17 2018, 00:12:26) *
Поддерживаю, очень приятный релиз во всех отношениях!!!
Бронебойно и мощно. Качественно и добротно выполненная дезяра.

Согласен. Плюс периодически всплывающие мелодии дико тащат


Thanks:
(1) Andrew,
Go to the top of the page
  Insert nick Quick quote
+Quote Post

Reply to this topicStart new topic
2 User(s) are reading this topic (2 Guests and 0 Anonymous Users)
0 Members:

 



- Lo-Fi Version Support form
Copyrights and abuse reports form
Time is now: 16th September 2019 - 11:08:31