Welcome Guest ( Log In | Register )

> Maquahuitl - Teocalli Of The Sacred War (2017), Black Metal
post Dec 17 2018, 01:33:34
Post #1

Правь статус, ####!111
**************
Group: Металариец
Posts: 3,547
Releases: 806
From: Brazil
On Forums: 7 years 1 month
Thanks: 30460 time(s)
Brazil


(IMG:https://metalarea.org/images/audiocovers/2018_Dec/acov_tid314369_thumb.jpg)

*Artist: Maquahuitl
*Album: Teocalli Of The Sacred War
*Year: 2017
*Genre: Black Metal
*Country: United States (IMG:https://metalarea.org/forum/style_images/flags/United%20States.png)
*Format: mp3@CBR320kbps
*Size: 79MB

Tracklist:
1. Llamada de Sangre
2. Sun Worship
3. Telpochtiliztli
4. Keeper of the Kingdom
5. Reclamation / La Lucha
6. Battle of Tenochtitlan
7. Teocalli of the Sacred War
8. Vermin King
******************************
Total playing time: 33:50



Extended info
Darker than Black Records


Technical info
(IMG:https://metalarea.org/images/spectrogram/2018_Dec/d8f0256a03c8eb245ad5554ff99c873c.png)
Input File: 02. Sun Worship.mp3
Channels : 2
Sample Rate : 44100
Precision : 16-bit
Duration : 00:03:08.03 = 8291947 samples = 14102 CDDA sectors
File Size : 7.66M
Bit Rate : 326k
Sample Encoding: MPEG audio (layer I, II or III)
Comments :
Title=Sun Worship
Artist=Maquahuitl
Album=Teocalli of the Sacred War
Tracknumber=02/8
Year=2017
Discnumber=1/1



Register


Go to the top of the page
  Insert nick Quick quote
+Quote Post
 
Start new topic
Replies (1 - 3)
post Dec 17 2018, 08:18:32
Post #2

the faceless one
Group Icon
Group: S-moderation team
Posts: 8,951
Releases: 1763
On Forums: 10 years 7 months
Thanks: 103949 time(s)
Russian Federation


Register


Go to the top of the page
  Insert nick Quick quote
+Quote Post
post Dec 17 2018, 14:53:59
Post #3

While Waiting the Worms
*******
Group: Металариец
Posts: 751
Releases: 0
On Forums: 5 years 2 months
Thanks: 1010 time(s)
Unknown


Скоростной и сыроватый стафф с беглой такой мелодикой, которая больше для плясовых годится.
Где-то на грани финской и французской школ, с каплей национального ацтекского колорита.
Саунд отличный, приёмы классические, знает и умеет парень... но мелодии слишком "радостные" для меня.


Thanks:
Go to the top of the page
  Insert nick Quick quote
+Quote Post
post Dec 31 2018, 10:04:30
Post #4

antithesis
**************
Group: Металариец
Posts: 2,581
Releases: 30
From: VRN
On Forums: 8 years 10 months
Thanks: 1446 time(s)
Russian Federation


ЦИТАТА(Sangreal @ Dec 17 2018, 18:53:59) *
Скоростной и сыроватый стафф с беглой такой мелодикой, которая больше для плясовых годится.
Где-то на грани финской и французской школ, с каплей национального ацтекского колорита.


оч понравился стафф.
Go to the top of the page
  Insert nick Quick quote
+Quote Post

Reply to this topicStart new topic
1 User(s) are reading this topic (1 Guests and 0 Anonymous Users)
0 Members:

 



- Lo-Fi Version Support form
Copyrights and abuse reports form
Time is now: 23rd March 2019 - 17:53:49