Welcome Guest ( Log In | Register )

> Bitachi - Götterdämmerung. Das Einzelne Kapitel (2017), Instrumental Death/Doom Metal (D8)
post Dec 17 2018, 11:43:53
Post #1

Group: Подсевший
Posts: 43
Releases: 4
On Forums: 13 years 8 months
Thanks: 75 time(s)
Germany


(IMG:http://metalarea.org/images/audiocovers/2018_Dec/acov_uid106123_18d638ea1d92fcbe1bf00d2f6b553365_thumb.jpg)

*Artist: Bitachi
*Album: Götterdämmerung. Das Einzelne Kapitel
*Year: 2017
*Genre: Instrumental Death/Doom Metal
*Country: Germany (IMG:https://metalarea.org/forum/style_images/flags/Germany.png)
*Format: mp3@CBR320kbps
*Size: 176MB

Tracklist:
01. Der Hundertjährige Regen 05:43
02. Die Großen Alten Wesen 04:58
03. Die Dämmerung 05:34
04. Die Labyrinthe der Angst 03:48
05. Berge des Wahnsinns 08:22
06. Tiefer, tiefer... 06:54
07. Das Requiem 05:43
08. In den Tunnels der Dunkelheit 06:39
09. Tekeli-li 05:27
10. Schaggothen 04:23
11. Niedergang des Friedens 05:30
******************************
Total playing time: 1:03:01

Extended info
Это концептуальный альбом, основанный на романе Говарда Филлипса Лавкрафта "Хребты Безумия". Работа над альбомом велась целый год. Основным источником вдохновения, помимо литературного произведения, явился композитор Рихард Вагнер. Но не ищите в этом альбоме что-то похожее на него. Это мрачный мелодичный инструментальный альбом, погружающий в свою атмосферу, обволакивающий мрачными хорами и низвергающий в глубину своих мыслей.


Technical info
(IMG:https://metalarea.org/images/spectrogram/2018_Dec/7b6a15e4704222d7026f17cdcd47b640.png)
Input File: 08. BitacHi - In den Tunnels der Dunkelheit.mp3
Channels : 2
Sample Rate : 44100
Precision : 16-bit
Duration : 00:06:39.42 = 17614510 samples = 29956.6 CDDA sectors
File Size : 18.8M
Bit Rate : 377k
Sample Encoding: MPEG audio (layer I, II or III)
Comments :
Title=In den Tunnels der Dunkelheit
Artist=BitacHi
Album=Götterdämmerung. Das einzelne Kapitel
Tracknumber=08/11
Year=2017
Genre=22



Register


This post has been edited by Borderline1991: Dec 17 2018, 13:15:41


Go to the top of the page
  Insert nick Quick quote
+Quote Post
 
Start new topic
Replies (1 - 1)
post Dec 18 2018, 01:11:17
Post #2

Правь статус, ####!111
**************
Group: Металариец
Posts: 2,459
Releases: 11
From: Canada
On Forums: 12 years 11 months
Thanks: 1639 time(s)
Canada




Thanks:
(1) d0zer,
Go to the top of the page
  Insert nick Quick quote
+Quote Post

Reply to this topicStart new topic
2 User(s) are reading this topic (2 Guests and 0 Anonymous Users)
0 Members:

 



- Lo-Fi Version Support form
Copyrights and abuse reports form
Time is now: 5th June 2020 - 20:50:09