Welcome Guest ( Log In | Register )

> И неформату есть предел.

Рэп/хип-хоп/шансон/поп удаляются. Для них есть свои порталы.

 
Reply to this topicStart new topic
> Custard Flux - Helium (2018), Psychedelic/Progressive Rock
post Dec 17 2018, 16:58:40
Post #1

Герберт Уэст
**************
Group: Металариец
Posts: 2,148
Releases: 65
From: Поморье
On Forums: 10 years 3 months
Thanks: 4441 time(s)
Russian Federation


(IMG:http://metalarea.org/images/audiocovers/2018_Dec/acov_tid314426_thumb.jpg)

*Artist: Custard Flux
*Album: Helium
*Year: 2018
*Genre: Psychedelic/Progressive Rock
*Country: United States (IMG:http://metalarea.org/forum/style_images/flags/United%20States.png)
*Format: mp3@CBR320kbps
*Size: 149MB

Tracklist:
01. The Hit Parade
02. Forevermore
03. Empyrean House
04. Tiger
05. The Shire Of Gingin
06. Innermission
07. Sleepy
08. La Mort
09. Out Of Phase
10. Golden Opportunity
11. Tiger Reprise
12. Helium
******************************
Total playing time: 1:04:52


Preview 2

Extended info
Line Up / Musicians:
Andrea Massimo / guitar, vocals
Walter Kesten / guitar
Lino Cicala / keyboards
Andrea Zani / keyboards
Tony Alemanno / bass guitar and bass pedal
Matteo Paparazzo / drums
Demetra Fogazza / flute, vocals


Technical info
(IMG:http://metalarea.org/images/spectrogram/2018_Dec/fddbfbe170283f6841f5ca32483b957f.png)
Input File: 03. Empyrean House.mp3
Channels : 2
Sample Rate : 44100
Precision : 16-bit
Duration : 00:03:54.41 = 10337437 samples = 17580.7 CDDA sectors
File Size : 9.46M
Bit Rate : 323k
Sample Encoding: MPEG audio (layer I, II or III)
Comments :
Title=Empyrean House
Artist=Custard Flux
Album=Helium
Tracknumber=3
Year=2018
Genre=Progressive Rock



Register


Thanks:
Go to the top of the page
  Insert nick Quick quote
+Quote Post

Reply to this topicStart new topic
2 User(s) are reading this topic (2 Guests and 0 Anonymous Users)
0 Members:

 



- Lo-Fi Version Support form
Copyrights and abuse reports form
Time is now: 15th September 2019 - 21:01:25