Welcome Guest ( Log In | Register )

> Forum rules / Правила раздела

Here go releases which can't go to New releases forums due lack of information, stolen links or incorrect data and just founded in other sites links with minimum info. Reissue of this releases through Add release form with added/corrected data, info and own links highly welcomed.

Сюда уходят релизы, не пропущенные в основные релизные форумы по причинам отсутствия, недостаточности или неверности/некорректности сопровождающей информации, содержащие ссылки, указывающие на файлы, залитые не автором темы, а так же просто найденные где-то ссылки с минимумом информации. Переоформление тем отсюда через форму Добавления релиза с перезаливкой ссылок крайне приветствуется.

> No Light - Compilation [compilation] (2018), Dark Ambient/Dark Metal
post Dec 19 2018, 07:59:38
Post #1

Group: Подсевший
Posts: 13
Releases: 2
From: istanbul \ Türkiye
On Forums: 12 years 1 week
Thanks: 22 time(s)
Turkey


(IMG:http://metalarea.org/images/audiocovers/2018_Dec/acov_tid314507_thumb.jpg)

*Artist: No Light
*Album: Compilation [compilation]
*Year: 2018
*Genre: Dark Ambient/Dark Metal
*Country: Turkey (IMG:http://metalarea.org/forum/style_images/flags/Turkey.png)
*Format: mp3@CBR320kbps
*Size: 102MB

Tracklist:
01. Overpass
02. The New Autumn
03. Winter III
04. The Sun
05. Cold Rain
06. Nothing Hope (New Track)
******************************
Total playing time: 45:06

Extended info
Pass : www.metalarea.org


Technical info
(IMG:http://metalarea.org/images/spectrogram/2018_Dec/46d527d408330b687a89cb2e78c2c83f.png)
Input File: 01 - Overpass.mp3
Channels : 2
Sample Rate : 44100
Precision : 16-bit
Duration : 00:01:17.95 = 3437727 samples = 5846.47 CDDA sectors
File Size : 3.12M
Bit Rate : 320k
Sample Encoding: MPEG audio (layer I, II or III)
Comments :
Album=Best Compilation
Year=2018



Register


Thanks:
Go to the top of the page
  Insert nick Quick quote
+Quote Post
 
Start new topic
Replies (1 - 2)
post Dec 19 2018, 10:52:41
Post #2


Group Icon
Group: S-moderation team
Posts: 10,551
Releases: 1435
From: Zagreb
On Forums: 8 years 2 months
Thanks: 45476 time(s)
Croatia



 ! 

Rule 2.4: Name of the archive MUST contain your nickname on metalarea.org or term "metalarea.org"
 
Go to the top of the page
  Insert nick Quick quote
+Quote Post
post Dec 19 2018, 11:41:44
Post #3

Group: Подсевший
Posts: 13
Releases: 2
From: istanbul \ Türkiye
On Forums: 12 years 1 week
Thanks: 22 time(s)
Turkey


QUOTE(Borderline1991 @ Dec 19 2018, 12:52:41) *


Sorry, Ok I No
Go to the top of the page
  Insert nick Quick quote
+Quote Post

Reply to this topicStart new topic
2 User(s) are reading this topic (2 Guests and 0 Anonymous Users)
0 Members:

 



- Lo-Fi Version Support form
Copyrights and abuse reports form
Time is now: 26th May 2019 - 12:23:12