Welcome Guest ( Log In | Register )

 
Reply to this topicStart new topic
> Necromonarchia Daemonum - Ghost Of Coven [compilation] (2018), Black/Doom Metal
post Dec 20 2018, 15:31:46
Post #1

Group Icon
Group: S-moderation team
Posts: 15,579
Releases: 1440
From: Zagreb
On Forums: 9 years 3 months
Thanks: 69465 time(s)
Croatia


(IMG:http://metalarea.org/images/audiocovers/2018_Dec/acov_tid314588_thumb.jpg)

*Artist: Necromonarchia Daemonum
*Album: Ghost Of Coven [compilation]
*Year: 2018
*Genre: Black/Doom Metal
*Country: Finland (IMG:http://metalarea.org/forum/style_images/flags/Finland.png)
*Format: mp3@VBR266kbps
*Size: 55MB

Tracklist:
1. Anno Dracul 01:53
2. Mystigmata 02:56
3. Crucifixions Under a Mass of Darkness 03:18
4. Her Sombre Funeral Lament 05:00
5. Livid Presence of a Voice of Hell 02:08
6. Necroerotica the Witches Shrine 02:57
7. Media Nox Funeralis 04:57
8. Bloodlust & Witchcraft 02:38
9. Moonglow Gothician 02:38
******************************
Total playing time: 28:25

Extended info
Darkness Attack Records cassette. Compilation of the "Stygian Serenades" and "Funeralis de Malefica" demos.


Technical info
(IMG:http://metalarea.org/images/spectrogram/2018_Dec/766f6e63427923fef9d443d22dd5eccc.png)
Input File: 05 Livid Presence Of A Voice Of Hell.mp3
Channels : 2
Sample Rate : 44100
Precision : 16-bit
Duration : 00:02:08.44 = 5664380 samples = 9633.3 CDDA sectors
File Size : 4.23M
Bit Rate : 264k
Sample Encoding: MPEG audio (layer I, II or III)
Comments :
Title=Livid Presence Of A Voice Of Hell
Artist=Necromonarchia Daemonum
Album=Ghosts Of Coven
Tracknumber=05/9
Year=2018
Discnumber=1/1



Register


Go to the top of the page
  Insert nick Quick quote
+Quote Post

Reply to this topicStart new topic
1 User(s) are reading this topic (1 Guests and 0 Anonymous Users)
0 Members:

 



- Lo-Fi Version Support form
Copyrights and abuse reports form
Time is now: 7th June 2020 - 04:16:22