Welcome Guest ( Log In | Register )

> Forum rules / Правила раздела

Here go releases which can't go to New releases forums due lack of information, stolen links or incorrect data and just founded in other sites links with minimum info. Reissue of this releases through Add release form with added/corrected data, info and own links highly welcomed.

Сюда уходят релизы, не пропущенные в основные релизные форумы по причинам отсутствия, недостаточности или неверности/некорректности сопровождающей информации, содержащие ссылки, указывающие на файлы, залитые не автором темы, а так же просто найденные где-то ссылки с минимумом информации. Переоформление тем отсюда через форму Добавления релиза с перезаливкой ссылок крайне приветствуется.

> Rimfrost - Dawnbreaker [single] (2018), Black Metal (D)
post Dec 20 2018, 16:42:38
Post #1
BAN
Banned till
Jun 15 2019, 17:50:12



(IMG:http://metalarea.org/images/audiocovers/2018_Dec/acov_tid314599_thumb.jpg)

*Artist: Rimfrost
*Album: Dawnbreaker [single]
*Year: 2018
*Genre: Black Metal
*Country: Sweden (IMG:http://metalarea.org/forum/style_images/flags/Sweden.png)
*Format: mp3@CBR320kbps
*Size: 14MB

Tracklist:
1. Dawnbreaker
******************************
Total playing time: 6:05

Technical info
(IMG:http://metalarea.org/images/spectrogram/2018_Dec/8eb5ada079d0c13e40ee265b05a4fc90.png)
Input File: 01. Dawnbreaker.mp3
Channels : 2
Sample Rate : 44100
Precision : 16-bit
Duration : 00:06:05.47 = 16117359 samples = 27410.5 CDDA sectors
File Size : 14.9M
Bit Rate : 327k
Sample Encoding: MPEG audio (layer I, II or III)
Comments :
Title=Dawnbreaker
Artist=Rimfrost
Album=Dawnbreaker
Tracknumber=1/1
Year=2018
Discnumber=1/1



Register


Thanks:
(1) varg-38ru,
Go to the top of the page
  Insert nick Quick quote
+Quote Post
 
Start new topic
Replies (1 - 1)
post Dec 20 2018, 20:06:36
Post #2
BAN
Banned till
Jun 15 2019, 17:50:12



Сойдёт.
Go to the top of the page
  Insert nick Quick quote
+Quote Post

Reply to this topicStart new topic
2 User(s) are reading this topic (2 Guests and 0 Anonymous Users)
0 Members:

 



- Lo-Fi Version Support form
Copyrights and abuse reports form
Time is now: 26th May 2019 - 11:57:40