Welcome Guest ( Log In | Register )

> И неформату есть предел.

Рэп/хип-хоп/шансон/поп удаляются. Для них есть свои порталы.

> Infected Mushroom - Head Of Nasa And The 2 Amish Boys (2018), Psy-Trance/Dubstep/Electro (D10)
post Dec 21 2018, 14:18:16
Post #1

Герберт Уэст
**************
Group: Металариец
Posts: 2,153
Releases: 67
From: Поморье
On Forums: 10 years 3 months
Thanks: 4486 time(s)
Russian Federation


(IMG:http://metalarea.org/images/audiocovers/2018_Dec/acov_tid314641_thumb.jpg)

*Artist: Infected Mushroom
*Album: Head Of Nasa And The 2 Amish Boys
*Year: 2018
*Genre: Psy-Trance/Dubstep/Electro
*Country: Israel (IMG:http://metalarea.org/forum/style_images/flags/Israel.png)
*Format: mp3@CBR320kbps
*Size: 119MB

Tracklist:
01. Bliss On Mushrooms (Feat. Miyavi) (09:30)
02. Guitarmass (06:38)
03. Head Of NASA (07:45)
04. Chenchen Barvaz (07:42)
05. Walking On The Moon (05:36)
06. Here We Go Go Go (05:55)
07. Lost In Space (04:55)
******************************
Total playing time: 48:01

Preview 1

Extended info
electronic music DJs and producers Duo::
Amit Duvdevani
Erez Eisen


Technical info
(IMG:http://metalarea.org/images/spectrogram/2018_Dec/71b9ae70a7ea5ec9c2ea330550f071d4.png)
Input File: 02. Infected Mushroom - Guitarmass.mp3
Channels : 2
Sample Rate : 44100
Precision : 16-bit
Duration : 00:06:39.02 = 17596738 samples = 29926.4 CDDA sectors
File Size : 16.1M
Bit Rate : 322k
Sample Encoding: MPEG audio (layer I, II or III)
Comments :
Title=Guitarmass
Artist=Infected Mushroom
Album=Head Of NASA And The 2 Amish Boys
Tracknumber=2
Year=2018
Genre=Psy-Trance / Dubstep / Electro



Register


Go to the top of the page
  Insert nick Quick quote
+Quote Post
 
Start new topic
Replies (1 - 6)
post Dec 26 2018, 00:40:00
Post #2
BAN
Banned till
Oct 7 2019, 23:44:15



Неушто ты такое слушаешь?
Go to the top of the page
  Insert nick Quick quote
+Quote Post
post Dec 26 2018, 08:38:38
Post #3

Герберт Уэст
**************
Group: Металариец
Posts: 2,153
Releases: 67
From: Поморье
On Forums: 10 years 3 months
Thanks: 4486 time(s)
Russian Federation


ЦИТАТА(vosmidesijatye @ Dec 26 2018, 02:40:00) *
Неушто ты такое слушаешь?

Я много чего слушаю, окромя рэпа(потому и не лез в ваши прения Тираном Тарелковичем) и откровенного попа, ну и дебильный металл бесит - вроде блэка, дуболомного трэша или гринды, просто не ору об этом, как это модно, у тебя и твоего земели из института Сербского. (IMG:style_emoticons/default/1488.gif)
Go to the top of the page
  Insert nick Quick quote
+Quote Post
post Dec 26 2018, 09:54:13
Post #4

За Русь в метро взорвусь
**************
Group: Металариец
Posts: 2,658
Releases: 2
From: Yaroslavl
On Forums: 3 years 1 week
Thanks: 1586 time(s)
Northern Mariana Islands


Отличный коллектив.
Новые законодатели электронного звучания в современной музыке
Вместе с Imagine Dragons, и чуть ранее, Daft Punk, конечно же.
Go to the top of the page
  Insert nick Quick quote
+Quote Post
post Dec 26 2018, 09:57:35
Post #5
BAN
Banned till
Oct 7 2019, 23:44:15



ЦИТАТА(Faust_Vulkan_16 @ Dec 26 2018, 12:54:13) *
Imagine Dragons


Всегда щитал шо они рочок для херок шпарят, надо чекнуть тогда, шоли...
Go to the top of the page
  Insert nick Quick quote
+Quote Post
post Dec 26 2018, 10:06:09
Post #6

За Русь в метро взорвусь
**************
Group: Металариец
Posts: 2,658
Releases: 2
From: Yaroslavl
On Forums: 3 years 1 week
Thanks: 1586 time(s)
Northern Mariana Islands


Вообще, последним творением, где ещё есть музыка, лично для меня, и ещё пары музыкально-грамотных грамотных людей, является Massive Attack с альбомом Mezzonine 1998.
Дальше музыки не стало.
Только шум и звук.


Thanks:
Go to the top of the page
  Insert nick Quick quote
+Quote Post
post Dec 26 2018, 10:08:25
Post #7
BAN
Banned till
Oct 7 2019, 23:44:15



ЦИТАТА(Faust_Vulkan_16 @ Dec 26 2018, 13:06:09) *
Вообще, последним творением, где ещё есть музыка, лично для меня, и ещё пары музыкально-грамотных грамотных людей, является Massive Attack с альбомом Mezzonine 1998.
Дальше музыки не стало.
Только шум и звук.


А как же творения Уотерса того же? Стива Уилсона?

Не жирни уж так то.

Понятно шо ты берешь ОБЩИЙ контекст но исключения лишь подтверждают правило.
Go to the top of the page
  Insert nick Quick quote
+Quote Post

Reply to this topicStart new topic
2 User(s) are reading this topic (2 Guests and 0 Anonymous Users)
0 Members:

 



- Lo-Fi Version Support form
Copyrights and abuse reports form
Time is now: 20th September 2019 - 13:09:21