Welcome Guest ( Log In | Register )

> Forum rules / Правила раздела

Here go releases which can't go to New releases forums due lack of information, stolen links or incorrect data and just founded in other sites links with minimum info. Reissue of this releases through Add release form with added/corrected data, info and own links highly welcomed.

Сюда уходят релизы, не пропущенные в основные релизные форумы по причинам отсутствия, недостаточности или неверности/некорректности сопровождающей информации, содержащие ссылки, указывающие на файлы, залитые не автором темы, а так же просто найденные где-то ссылки с минимумом информации. Переоформление тем отсюда через форму Добавления релиза с перезаливкой ссылок крайне приветствуется.

 
Reply to this topicStart new topic
> Kold - Hvid Plageånd (2018), Depressive Suicidal Black Metal;
post Dec 21 2018, 14:48:07
Post #1

Group: Дух
Posts: 1
Releases: 0
On Forums: 5 months 3 days
Thanks: 2 time(s)
Russian Federation


(IMG:https://metalarea.org/images/audiocovers/nocover.gif)

*Artist: Kold
*Album: Hvid Plageånd
*Year: 2018
*Genre: Depressive Suicidal Black Metal;
*Country: Russian Federation (IMG:https://metalarea.org/forum/style_images/flags/Russian%20Federation.png)
*Format: mp3@CBR320kbps
*Size: 120MB

Tracklist:
1. Åreladning
2. Uden Puls
3. Isnende Gift
4. Han græder. Han skriger. Han fryser.
******************************
Total playing time: 49:51


Preview 2

Extended info
Released: december 05.2018


Technical info
(IMG:https://metalarea.org/images/spectrogram/2018_Dec/1a0c588d6902aac802b9e1579144c8f1.png)
Input File: 1 - Åreladning.mp3
Channels : 2
Sample Rate : 48000
Precision : 16-bit
Duration : 00:14:01.46 = 40390272 samples ~ 63109.8 CDDA sectors
File Size : 33.7M
Bit Rate : 320k
Sample Encoding: MPEG audio (layer I, II or III)
Comments :
Title=Åreladning
Artist=Kold
Album=Hvid Plageånd
Tracknumber=1
Year=2018
Genre=Depressive Suicidal Black Metal



Register


Thanks:
Go to the top of the page
  Insert nick Quick quote
+Quote Post

Reply to this topicStart new topic
2 User(s) are reading this topic (2 Guests and 0 Anonymous Users)
0 Members:

 



- Lo-Fi Version Support form
Copyrights and abuse reports form
Time is now: 26th May 2019 - 12:57:32