Welcome Guest ( Log In | Register )

> Obscurity Tears - Rise Of A God (2018), Doom Metal
post Dec 21 2018, 20:35:18
Post #1

Правь статус, ####!111
**************
Group: Металариец
Posts: 19,792
Releases: 13423
From: Г.Харьков
On Forums: 7 years 6 months
Thanks: 232269 time(s)
Unknown


(IMG:https://metalarea.org/images/audiocovers/2018_Dec/acov_tid314655_thumb.jpg)

*Artist: Obscurity Tears
*Album: Rise Of A God
*Year: 2018
*Genre: Doom Metal
*Country: Brazil (IMG:https://metalarea.org/forum/style_images/flags/Brazil.png)
*Format: mp3@CBR320kbps
*Size: 105MB

Tracklist:
01. Rise of a God, Pt. 1
02. The Seeder
03. Progenysense
04. Rise of a God, Pt. 2
05. Interstellar
06. Lost in the Deep
07. Rise of a God, Pt. 3
08. The Deep and Red Sea
09. Dark Fairy
******************************
Total playing time: 49:11



Extended info
Flávio Marcelo Bass, Vocals
Denes Drums
Evandro Andrade Guitars
José Alves Guitars (Keyboards early)
Márcia Raquel Vocals
See also: Empty Book


Technical info
(IMG:https://metalarea.org/images/spectrogram/2018_Dec/4e4e81c623c9ca3c93bf9d721bbd2366.png)
Input File: 03. Progenysense.mp3
Channels : 2
Sample Rate : 44100
Precision : 16-bit
Duration : 00:07:58.41 = 21097881 samples = 35880.8 CDDA sectors
File Size : 19.2M
Bit Rate : 321k
Sample Encoding: MPEG audio (layer I, II or III)
Comments :
Title=Progenysense
Artist=Obscurity Tears
Album=Rise Of A God
Tracknumber=3
Year=2018
Discnumber=1



Register


Go to the top of the page
  Insert nick Quick quote
+Quote Post
 
Start new topic
Replies (1 - 5)
post Dec 21 2018, 21:39:25
Post #2

Правь статус, ####!111
**************
Group: Металариец
Posts: 19,792
Releases: 13423
From: Г.Харьков
On Forums: 7 years 6 months
Thanks: 232269 time(s)
Unknown


Cloud Mail 320
Register


Thanks:
(1) djsema4,
Go to the top of the page
  Insert nick Quick quote
+Quote Post
post Dec 24 2018, 11:00:26
Post #3

Group: Дух
Posts: 2
Releases: 0
On Forums: 5 years 10 months
Thanks: 1 time(s)
Czech Republic


https://www.youtube.com/watch?v=sCzv5HpZmbg
Go to the top of the page
  Insert nick Quick quote
+Quote Post
post Dec 26 2018, 20:12:13
Post #4

Крещенный в алкоголе
***********
Group: Металариец
Posts: 1,587
Releases: 30
From: Sea of darkness
On Forums: 14 years 1 month
Thanks: 698 time(s)
Israel


Дум дэт, тащемта. Очень похоже на ранний Mythological cold towers: унылейший гроул, относительно много клавишных и потрясные гитарки, иногда даже отдающие кататонией.

Дослушал: хороший альбом. Несмотря на современность и ужасный вокал, чувствуется заботливо воссозданный дух олдскула. Куча цепляющих мелодий и почти полное отсутствие музыкального балласта, звучат довольно бодро. Скучающим по душевному стаффу в духе Ignis Creatio от Pyogenesis и вышеупомянутых товарищей следует обратить самое пристальное внимание.


Thanks:
(1) avather,
Go to the top of the page
  Insert nick Quick quote
+Quote Post
post Apr 8 2019, 07:30:51
Post #5

Четыре Литра
****
Group: Металариец
Posts: 354
Releases: 18
On Forums: 10 years 9 months
Thanks: 404 time(s)
United Kingdom


Go to the top of the page
  Insert nick Quick quote
+Quote Post
post Jul 7 2019, 02:13:34
Post #6

Stultus Anethum Siccum.
******
Group: Металариец
Posts: 637
Releases: 0
On Forums: 10 years 10 months
Thanks: 69 time(s)
Unknown


Неплохой думец, под пиво покатит(IMG:style_emoticons/default/smile1.gif)
Go to the top of the page
  Insert nick Quick quote
+Quote Post

Reply to this topicStart new topic
2 User(s) are reading this topic (2 Guests and 0 Anonymous Users)
0 Members:

 



- Lo-Fi Version Support form
Copyrights and abuse reports form
Time is now: 8th December 2019 - 19:13:34