Welcome Guest ( Log In | Register )

> 

Здесь релизы с живыми прямыми ссылками на lossless

> Peste Noire - Peste Noire – Split – Peste Noire (2018), Black Metal
post Dec 21 2018, 21:28:00
Post #1

the faceless one
Group Icon
Group: S-moderation team
Posts: 9,387
Releases: 1935
On Forums: 12 years 8 months
Thanks: 117408 time(s)
Russian Federation


(IMG:http://metalarea.org/images/audiocovers/2018_Dec/acov_tid314658_thumb.jpg)

*Artist: Peste Noire
*Album: Peste Noire – Split – Peste Noire
*Year: 2018
*Genre: Black Metal
*Country: France (IMG:http://metalarea.org/forum/style_images/flags/France.png)
*Format: mp3@CBR320kbps
*Size: 115MB

Tracklist:
1. Aux armes! 06:59
2. Interlude 01:48
3. Songe viking 04:32
4. Raid éclair 05:41
5. 666 millions d'esclaves et de déchets 07:12
6. Noire Peste 04:37
7. Des médecins malades et des saints séquestrés 05:15
8. Turbofascisme 03:07
9. Aristocrasse 03:53
10. Domine 05:41
******************************
Total playing time: 48:45

Extended info
La Mesnie Herlequin / Militant Zone, December 14th.


Technical info
(IMG:http://metalarea.org/images/spectrogram/2018_Dec/ca57a5b49270c5443072c14744a2f4de.png)
Input File: 06 Noire Peste.mp3
Channels : 2
Sample Rate : 44100
Precision : 16-bit
Duration : 00:04:37.02 = 12216582 samples = 20776.5 CDDA sectors
File Size : 11.1M
Bit Rate : 322k
Sample Encoding: MPEG audio (layer I, II or III)
Comments :
Title=Noire Peste
Artist=Peste Noire
Album=Peste Noire – Split – Peste Noire
Tracknumber=06
Year=2018
Genre=Black Metal



Register


Go to the top of the page
  Insert nick Quick quote
+Quote Post
4 Pages V  « < 2 3 4  
Start new topic
Replies (90 - 92)
post Jan 24 2021, 17:03:42
Post #91

Семь Литров
*******
Group: Металариец
Posts: 733
Releases: 1
On Forums: 1 year 10 months
Thanks: 535 time(s)
Russian Federation


Небольшой фьюжн рэпчика, проявляющийся в качёвом ритме, в вульгарной подаче материала, как было на "Le dernier putsch", например - такое воспринималось круто. А сабж - отстой. Хотя на нём и в блэкушной составляющей ничего особенного нет.


Thanks:
(1) ent404,
Go to the top of the page
  Insert nick Quick quote
+Quote Post
post Jan 24 2021, 18:46:36
Post #92

Пять Литров
*****
Group: Металариец
Posts: 477
Releases: 9
From: UA
On Forums: 13 years 1 month
Thanks: 925 time(s)
Ukraine


ЦИТАТА(HviteGuden @ Jan 24 2021, 18:03:42) *
Хотя на нём и в блэкушной составляющей ничего особенного нет.

"Songe viking" и новая версия "666 millions d'esclaves et de déchets" отличные. В последней ещё и текст доставляет)
Go to the top of the page
  Insert nick Quick quote
+Quote Post
post Jan 24 2021, 18:49:44
Post #93

for me your flesh
**********
Group: Металариец
Posts: 1,234
Releases: 0
On Forums: 3 years 8 months
Thanks: 1004 time(s)
Unknown


С первой части лучшие Aux armes! и Raid éclair, со второй Turbofascisme. Первая половина без особых нагромождений, но весьма хороша, а первая вещь практически хит.
Go to the top of the page
  Insert nick Quick quote
+Quote Post

4 Pages V  « < 2 3 4
Reply to this topicStart new topic
2 User(s) are reading this topic (2 Guests and 0 Anonymous Users)
0 Members:

 



- Lo-Fi Version Support form
Copyrights and abuse reports form
Time is now: 19th April 2021 - 11:04:12