Welcome Guest ( Log In | Register )

> Forum rules / Правила раздела

Here go releases which can't go to New releases forums due lack of information, stolen links or incorrect data and just founded in other sites links with minimum info. Reissue of this releases through Add release form with added/corrected data, info and own links highly welcomed.

Сюда уходят релизы, не пропущенные в основные релизные форумы по причинам отсутствия, недостаточности или неверности/некорректности сопровождающей информации, содержащие ссылки, указывающие на файлы, залитые не автором темы, а так же просто найденные где-то ссылки с минимумом информации. Переоформление тем отсюда через форму Добавления релиза с перезаливкой ссылок крайне приветствуется.

 
Reply to this topicStart new topic
> Throatplunger - Cumplete Discography [compilation] (2013), Death Metal/Grindcore
post Dec 22 2018, 10:47:33
Post #1

Два Литра
**
Group: Подсевший
Posts: 104
Releases: 18
From: Harlingen, Texas
On Forums: 2 years 7 months
Thanks: 479 time(s)
United States


(IMG:http://metalarea.org/images/audiocovers/2018_Dec/acov_tid314674_thumb.jpg)

*Artist: Throatplunger
*Album: Cumplete Discography [compilation]
*Year: 2013
*Genre: Death Metal/Grindcore
*Country: United States (IMG:http://metalarea.org/forum/style_images/flags/United%20States.png)
*Format: mp3@CBR320kbps
*Size: 140MB

Tracklist:
1. - 22. : Pummeled By Cocks
23. - 27. : Slimewave Series
28. - 55. : Weapons Of Ass Destruction
56. - 64. : unreleased Celebrity Rapist EP
******************************
Total playing time: 55:19

Technical info
(IMG:http://metalarea.org/images/spectrogram/2018_Dec/60b3d871b4832a55a08dc4175b95a626.png)
Input File: 01 Unsurmountable Rape Party (Pummeled By Cocks).mp3
Channels : 2
Sample Rate : 44100
Precision : 16-bit
Duration : 00:00:52.87 = 2331743 samples = 3965.55 CDDA sectors
File Size : 2.27M
Bit Rate : 344k
Sample Encoding: MPEG audio (layer I, II or III)
Comments :
Title=Unsurmountable Rape Party (Pummeled By Cocks)
Artist=THROATPLUNGER
Album=Cumplete Discography
Tracknumber=1
Year=2013
Genre=Death Metal/Grindcore



Register


Thanks:
Go to the top of the page
  Insert nick Quick quote
+Quote Post

Reply to this topicStart new topic
1 User(s) are reading this topic (1 Guests and 0 Anonymous Users)
0 Members:

 



- Lo-Fi Version Support form
Copyrights and abuse reports form
Time is now: 25th March 2019 - 11:17:59