Welcome Guest ( Log In | Register )

> Aradia - Draconis' Eulogy (2010), Black Metal
post Dec 24 2018, 17:39:04
Post #1

Правь статус, ####!111
**************
Group: Металариец
Posts: 4,376
Releases: 1234
From: Brazil
On Forums: 8 years 3 months
Thanks: 46206 time(s)
Brazil


(IMG:https://metalarea.org/images/audiocovers/2018_Dec/acov_tid314793_thumb.jpg)

*Artist: Aradia
*Album: Draconis' Eulogy
*Year: 2010
*Genre: Black Metal
*Country: Malaysia (IMG:https://metalarea.org/forum/style_images/flags/Malaysia.png)
*Format: mp3@CBR320kbps
*Size: 118MB

Tracklist:
1. Of Those Who Dare to Ride the Dragon 06:22
2. Kissing Your Shadow 03:46
3. Hordes of the Exalted Axis 05:24
4. Huntsman's Epic 06:36
5. Coming into Light 04:35
6. Enthroned Na'batengi 05:18
7. Thus Kalachakra Illuminated 04:23
8. The Dance of the Sunset Bride 04:12
9. The Silenced Serenade 06:58
10. Draconis' Eulogy 02:43
******************************
Total playing time: 50:17

Extended info
Recorded & mixed at: Bandshop Studio, K.I (July - December 2009)
Final mixing & mastering at: Cyberhell, K.L
Produced by: Aradia

Some members participating in this recording are very unsatisfied with the album's sound, as the originally intended mix / master was modified and altered without getting consent from them.


Technical info
(IMG:https://metalarea.org/images/spectrogram/2018_Dec/26257ffeba750e1a3f5d90178629849b.png)
Input File: 02. Kissing Your Shadow.mp3
Channels : 2
Sample Rate : 44100
Precision : 16-bit
Duration : 00:03:46.83 = 10003335 samples = 17012.5 CDDA sectors
File Size : 9.07M
Bit Rate : 320k
Sample Encoding: MPEG audio (layer I, II or III)
Comments :
Title=Kissing Your Shadow
Artist=Aradia
Album=Draconis' Eulogy
Tracknumber=2
Year=2010



Register


Go to the top of the page
  Insert nick Quick quote
+Quote Post
 
Start new topic
Replies (1 - 1)
post Dec 28 2018, 02:11:04
Post #2

Правь статус, ####!111
**************
Group: Металариец
Posts: 2,459
Releases: 11
From: Canada
On Forums: 12 years 11 months
Thanks: 1639 time(s)
Canada




Thanks:
Go to the top of the page
  Insert nick Quick quote
+Quote Post

Reply to this topicStart new topic
2 User(s) are reading this topic (2 Guests and 0 Anonymous Users)
0 Members:

 



- Lo-Fi Version Support form
Copyrights and abuse reports form
Time is now: 30th May 2020 - 22:36:45